Новые приключения кота Леопольда / Серии: 13 (Анатолий Резников) [2015, короткометражный мультсериал, DVB]

 
Автор Сообщение

TorrentFilm ®

Пол:

Стаж: 2 года

Сообщений: 7741



Награды: Нет

Торрент-статистика

Создавать темы 07-Янв-2016 00:12

[Цитировать]

Новые приключения кота Леопольда Год выпуска: 2015
Страна: Россия
Жанр: короткометражный мультсериал
Продолжительность: 13 х 00:14:00
Перевод: Не требуется
субтитры: отсутствуют-Режиссёр: Анатолий Резников
Роли озвучивали: Александр Калягин, Диомид Виноградов, Андрей Бархударов-Описание: Встречайте старого знакомого - самого доброго кота в мире - Леопольда в новых сериях! Как и все, Леопольд собирается встретить Новый год, но маленькие мышата хотят все испортить, потому что считают, что кот слишком счастливый...-раздача от: -Качество: DVB
Формат: MPEG-TS
Видео кодек: MPEG
Аудио кодек: MPEG Audio
Видео: 720x576 , 25 fps, ~3013 kbps avg, 0.291 bit/pixel
Аудио: 48 kHz, 2 ch, ~160 kbps avg

Список серий

01. Лавина с гор
02. Сплошные неприятности
03. Всё кувырком
04. Кулинарный рецепт
05. Птицы
06. Ремонт в тылу врага
07. Такси вызывали?
08. Новогодняя ёлка
09. Бурный поток
10. На рыбалке у реки
11. Под жарким солнцем
12. Вперёд за колбасой и сыром
13. Парк развлечений

MediaInfo

Общее
Идентификатор : 1 (0x1)
Полное имя : D:\Леопольд\Новые приключения Кота Леопольда.2015.DVB\01. Лавина с гор.ts
Формат : MPEG-TS
Размер файла : 300 Мбайт
Продолжительность : 12 м.
Режим общего битрейта : Переменный
Общий поток : 3340 Кбит/сек
Видео
Идентификатор : 4261 (0x10A5)
Идентификатор меню : 4260 (0x10A4)
Формат : MPEG Video
Версия формата : Version 2
Профиль формата : Main@Main
Параметр BVOP формата : Да
Параметр матрицы формата : Выборочная
Параметр GOP формата : M=3, N=12
Структура изображения : Frame
Идентификатор кодека : 2
Продолжительность : 12 м.
Вид битрейта : Переменный
Битрейт : 3013 Кбит/сек
Максимальный битрейт : 15,0 Мбит/сек
Ширина : 720 пикселей
Высота : 576 пикселей
Соотношение сторон : 4:3
Частота кадров : 25,000 кадров/сек
Стандарт вещания : PAL
Цветовое пространство : YUV
Субдискретизация насыщенности : 4:2:0
Битовая глубина : 8 бит
Тип развёртки : Чересстрочная
Порядок развёртки : Верхнее поле первое
Метод сжатия : С потерями
Бит/(Пиксели*Кадры) : 0.291
Временной код первого кадра : 00:00:00:00
Оригинал временного кода : Group of pictures header
GOP, открыто/закрыто : Открыто
GOP, открыто/закрыто на первом кадре : Закрыто
Размер потока : 270 Мбайт (90%)
Аудио
Идентификатор : 4264 (0x10A8)
Идентификатор меню : 4260 (0x10A4)
Формат : MPEG Audio
Версия формата : Version 1
Профиль формата : Layer 2
Идентификатор кодека : 3
Продолжительность : 12 м.
Вид битрейта : Постоянный
Битрейт : 160 Кбит/сек
Каналы : 2 канала
Частота : 48,0 КГц
Метод сжатия : С потерями
Задержка видео : 3 мс.
Размер потока : 14,4 Мбайт (5%)
Язык : English
[Профиль] [ЛС]
Кто просматривает тему:

Форум Тема Автор Размер
Dance, Club (Club, Dance)VA - Новые клубные хиты (2014) [MP3|320 кб/с] sergej644 675 MB
Dance, Club (Club, Dance)Сборник - Новые клубные прайм хиты (2015) MP3 BOSS 819 MB
Metal (Heavy Metal) Черный кофе - Старые И Новые Хиты - 2014 [MP3, tracks, 320 kbps] sergej644 194 MB
Фильмы 2011 года 2019: Новые варвары / I nuovi barbari (Энцо Дж. Кастеллари) [1983 г., фантастика, боевик, триллер, BDRip] [MVO] Bathory 1.46 GB
BBC BBC: Помпеи: новые секреты / Pompeii: New Secrets Revealed with Mary Beard (Ian A. Hunt) [2016 г., Документальный, история, исследования, HDTVRip 720p] skorpionN 1.8 GB
National Geographic NG: Новые горизонты. Миссия: Плутон (Встреча с Плутоном) / New Horizons: Die Pluto Mission (Nic Young) [2014 г., Документальный, научно-познавательный, космос, HDTVRip 720p] skorpionN 1.09 GB
Фантастика, фэнтези Аноним (Роман Канушкин) - Канал имени Москвы (Новые легенды, 1) [Городское фэнтези, 2015, FB2] Garik014 2 MB
Мультфильмы СССР Возвращение блудного попугая / Новые приключения попугая Кеши [01-05 из 05] (1984-2005) DVDRip Белочка 912 MB
Показать сообщения:    

Текущее время: Сегодня 21:33

Часовой пояс: GMT



Вы не можете начинать темы
Вы не можете отвечать на сообщения
Вы не можете редактировать свои сообщения
Вы не можете удалять свои сообщения
Вы не можете голосовать в опросах
Вы не можете прикреплять файлы к сообщениям
Вы не можете скачивать файлы