Новое платье короля / Des Kaisers neue Kleider (Ханну Салонен / Hannu Salonen) [2010, Германия, сказка, детский, семейный, HDTVRip] DVO (Игмар) + Original Ger

 
Автор Сообщение

TorrentFilm ®

Пол:

Стаж: 2 года

Сообщений: 7741



Награды: Нет

Торрент-статистика

Создавать темы 24-Янв-2016 00:08

[Цитировать]

Новое платье короля / Des Kaisers neue Kleider
Страна: Германия
Жанр: сказка, детский, семейный
Год выпуска: 2010
Продолжительность: 00:58:33
Перевод: Профессиональный (двухголосый закадровый) Компания "Игмар"
Cубтитры: нет
Оригинальная аудиодорожка: немецкий
Режиссер: Ханну Салонен / Hannu Salonen
В ролях: Матиас Брандт, Сергей Мойя, Алиса Юнг, Катрин Х. Флемминг, Манфред Мок, Томас Гимбл, Хартмут Фолле...
Описание: Экранизация сказки Ганса Христиана Андерсена.
Король некоторого государства нанимает двух проходимцев, которые обещают сшить ему новое платье из столь тонкой ткани, что она будет практически невидимой для глупцов. Проведя некоторое время за пустым ткацким станком, мошенники передают королю невидимое «платье». Король и все его приближенные замечают, что сами не в состоянии увидеть обновку, однако боятся в этом признаться, дабы не прослыть глупцами. Таким образом, король расхаживает нагишом и все восхищаются его «новым превосходным костюмом».
Доп. информация: Рип с канала 1HD. Из видеоряда удален логотип канала и прочие посторонние вещи.
Сэмпл: http://multi-up.com/1084503
Качество видео: HDTVRip
Формат видео: AVI
Видео: MPEG4, XviD, 720x400 (16:9), 25.000 fps, 2 019 Kbps (0.280 bit/pixel)
Аудио: AC-3, 48.0 KHz, 2 ch, 192 Kbps, CBR - русский
Аудио 2: AC-3, 48.0 KHz, 6 ch, 448 Kbps, CBR - немецкий

MediaInfo

Общее
Полное имя : N:\Новое платье короля.avi
Формат : AVI
Формат/Информация : Audio Video Interleave
Размер файла : 1,09 Гбайт
Продолжительность : 58 м.
Общий поток : 2673 Кбит/сек
Название фильма : Новое платье короля / Des Kaisers neue Kleider (2010)
Программа кодирования : VirtualDubMod 1.5.10.2 (build 2540/release)
Библиотека кодирования : VirtualDubMod build 2540/release
Авторское право : miha2154
Видео
Идентификатор : 0
Формат : MPEG-4 Visual
Профиль формата : Advanced Simple@L5
Параметр BVOP формата : 1
Параметр QPel формата : Нет
Параметр GMC формата : Без точки перехода
Параметр матрицы формата : Выборочная
Идентификатор кодека : XVID
Идентификатор кодека/Подсказка : XviD
Продолжительность : 58 м.
Битрейт : 2019 Кбит/сек
Ширина : 720 пикселей
Высота : 400 пикселей
Соотношение сторон : 16:9
Частота кадров : 25,000 кадров/сек
Цветовое пространство : YUV
Субдискретизация насыщенности : 4:2:0
Битовая глубина : 8 бит
Тип развёртки : Прогрессивная
Метод сжатия : С потерями
Бит/(Пиксели*Кадры) : 0.280
Размер потока : 846 Мбайт (76%)
Библиотека кодирования : XviD 65
Аудио #1
Идентификатор : 1
Формат : AC-3
Формат/Информация : Audio Coding 3
Расширение режима : CM (complete main)
Параметр Endianness формата : Big
Идентификатор кодека : 2000
Продолжительность : 58 м.
Вид битрейта : Постоянный
Битрейт : 192 Кбит/сек
Каналы : 2 канала
Расположение каналов : Front: L R
Частота : 48,0 КГц
Частота кадров : 31,250 кадров/сек (1536 spf)
Метод сжатия : С потерями
Размер потока : 80,4 Мбайт (7%)
Выравнивание : Разделение по промежуткам
Продолжительность промежутка : 40 мс. (1,00 видеокадр)
Время предзагрузки промежутка : 500 мс.
Заголовок : Профессиональный (двухголосый закадровый) ТВЦ
Аудио #2
Идентификатор : 2
Формат : AC-3
Формат/Информация : Audio Coding 3
Расширение режима : CM (complete main)
Параметр Endianness формата : Big
Идентификатор кодека : 2000
Продолжительность : 58 м.
Вид битрейта : Постоянный
Битрейт : 448 Кбит/сек
Каналы : 6 каналов
Расположение каналов : Front: L C R, Side: L R, LFE
Частота : 48,0 КГц
Частота кадров : 31,250 кадров/сек (1536 spf)
Метод сжатия : С потерями
Размер потока : 188 Мбайт (17%)
Выравнивание : Разделение по промежуткам
Продолжительность промежутка : 40 мс. (1,00 видеокадр)
Время предзагрузки промежутка : 500 мс.
Заголовок : Немецкий

Скриншоты


[Профиль] [ЛС]

Создавать темы 12-Июн-2016 07:53 (спустя 4 месяца 19 дней)

Топик был перенесен из форума Фильмы 2011 года в форум Фильмы 2010 года
Russian Mafia
 
Показать сообщения:    

Текущее время: Сегодня 07:15

Часовой пояс: GMT



Вы не можете начинать темы
Вы не можете отвечать на сообщения
Вы не можете редактировать свои сообщения
Вы не можете удалять свои сообщения
Вы не можете голосовать в опросах
Вы не можете прикреплять файлы к сообщениям
Вы не можете скачивать файлы