Новое платье короля / Des Kaisers neue Kleider (Ханну Салонен / Hannu Salonen) [2010, сказка, детский, семейный, DVB] MVO (Игмар)

 
Автор Сообщение

TorrentFilm ®

Пол:

Стаж: 2 года

Сообщений: 7741



Награды: Нет

Торрент-статистика

Создавать темы 27-Янв-2015 00:00

[Цитировать]

Новое платье короля / Des Kaisers neue Kleider- Страна: Германия
Жанр: сказка, детский, семейный
Год выпуска: 2010
Продолжительность: 00:58:26
Перевод: Профессиональный (многоголосый закадровый) - Компания "Игмар" / Канал "Gulli"
Cубтитры: нет-Режиссер: Ханну Салонен / Hannu Salonen
В ролях: Матиас Брандт, Сергей Мойя, Алиса Юнг, Катрин Х. Флемминг, Манфред Мок, Томас Гимбл, Хартмут Фолле...- | Релиз: -Описание: Экранизация сказки Ганса Христиана Андерсена.
Король некоторого государства нанимает двух проходимцев, которые обещают сшить ему новое платье из столь тонкой ткани, что она будет практически невидимой для глупцов. Проведя некоторое время за пустым ткацким станком, мошенники передают королю невидимое «платье». Король и все его приближенные замечают, что сами не в состоянии увидеть обновку, однако боятся в этом признаться, дабы не прослыть глупцами. Таким образом, король расхаживает нагишом и все восхищаются его «новым превосходным костюмом».-Семпл: http://sendfile.su/1078499-Качество видео: DVB (Канал "Gulli")
Формат видео: MPG
Видео: 720x576 (4:3) @ 768x576, 25.000 fps, MPEG-2 Video, ~2523 Kbps, 0.243 bits/pixel
Аудио: Русский, 48.0 KHz, MPEG-1 Audio layer 2, 2 ch, 192 Kbps

MediaInfo

GeneralComplete name : Des Kaisers neue Kleider 2010 Gulli MVO Igmar.mpgFormat : MPEG-PSFile size : 1.13 GiBDuration : 58mn 26sOverall bit rate mode : VariableOverall bit rate : 2 770 Kbps
VideoID : 224 (0xE0)Format : MPEG VideoFormat version : Version 2Format profile : Main@MainFormat settings, BVOP : YesFormat settings, Matrix : CustomFormat settings, GOP : M=3, N=36Format settings, picture structure : FrameDuration : 58mn 26sBit rate mode : VariableBit rate : 2 523 KbpsMaximum bit rate : 15.0 MbpsWidth : 720 pixelsHeight : 576 pixelsDisplay aspect ratio : 4:3Frame rate : 25.000 fpsStandard : PALColor space : YUVChroma subsampling : 4:2:0Bit depth : 8 bitsScan type : InterlacedScan order : Top Field FirstCompression mode : LossyBits/(Pixel*Frame) : 0.243Time code of first frame : 00:00:00:00Time code source : Group of pictures headerGOP, Open/Closed : OpenStream size : 1.03 GiB (91%)GOP, Open/Closed of first frame : Closed
AudioID : 192 (0xC0)Format : MPEG AudioFormat version : Version 1Format profile : Layer 2Duration : 58mn 26sBit rate mode : ConstantBit rate : 192 KbpsChannel(s) : 2 channelsSampling rate : 48.0 KHzCompression mode : LossyStream size : 80.2 MiB (7%)

Скриншоты

[Профиль] [ЛС]

Создавать темы 06-Авг-2015 22:47 (спустя 6 месяцев 10 дней)

Топик был перенесен из форума Фильмы до 2014 года в форум Фильмы до 2012 года
sergej644
 

Создавать темы 12-Июн-2016 07:54 (спустя 1 год 4 месяца)

Топик был перенесен из форума Фильмы 2011 года в форум Фильмы 2010 года
Russian Mafia
 
Показать сообщения:    

Текущее время: Сегодня 08:50

Часовой пояс: GMT



Вы не можете начинать темы
Вы не можете отвечать на сообщения
Вы не можете редактировать свои сообщения
Вы не можете удалять свои сообщения
Вы не можете голосовать в опросах
Вы не можете прикреплять файлы к сообщениям
Вы не можете скачивать файлы