Новогодняя жена (Светлана Музыченко) [2012, Россия, комедия, HDTV 1080i]

 
Автор Сообщение

TorrentFilm ®

Пол:

Стаж: 1 год 11 месяцев

Сообщений: 7741



Награды: Нет

Торрент-статистика

Создавать темы 01-Янв-2016 00:10

[Цитировать]

Новогодняя жена
Жанр: комедия
Год выпуска: 2012
Продолжительность: 01:32:58
Режиссёр: Светлана Музыченко
В ролях: Карина Андоленко, Сергей Перегудов, Алёна Яковлева, Александр Арсентьев, Антон Васильев, Светлана Колпакова, Алексей Гришин, Анна Донченко, Даниил Эйдлин, Елена Ефимова, Юлия Крайнова, Юлия Сулес, Анастасия Смертина, Владимир Ширяев
Описание: В самый разгар вечеринки в клубе Даша и Максим встречают друг друга - и просыпаются в одной постели. Решив, что их свела сама судьба, герои принимаются строить идеальные, «правильные» отношения - и подают заявление в ЗАГС, предварительно заключив пари: если в течение месяца им удастся не просто прожить вместе, но и сохранить чувство влюбленности, дело закончится свадьбой. Максим с Дашей изо всех сил пытаются стать настоящей парой, хотя жизнь постоянно проверяет их отношения на прочность...
Доп. информация: Запись чистая. Без посторонних надписей. Выкладывается, как есть.
Релиз -
Семпл: http://multi-up.com/811490
Качество видео: HDTV 1080i
Формат видео: MPEG-TS
Видео: AVC 1920x1080 (16:9), 25 fps, 7031 Kbps, 0.13 bit/pixel
Аудио: MPEG Audio, 48.0 KHz, 224 Kbps, 2 channels

MI

ID : 1 (0x1)
Complete name : Новогодняя жена (Светлана Музыченко) (2012, Комедия, HDTV) (MYDIMKA).ts
Format : MPEG-TS
File size : 4.96 GiB
Duration : 1h 32mn
Overall bit rate mode : Variable
Overall bit rate : 7 634 Kbps
Video
ID : 1901 (0x76D)
Menu ID : 1 (0x1)
Format : AVC
Format/Info : Advanced Video Codec
Format profile : High@L4.0
Format settings, CABAC : Yes
Format settings, ReFrames : 3 frames
Codec ID : 27
Duration : 1h 32mn
Bit rate : 7 031 Kbps
Width : 1 920 pixels
Height : 1 080 pixels
Display aspect ratio : 16:9
Frame rate : 25.000 fps
Standard : Component
Color space : YUV
Chroma subsampling : 4:2:0
Bit depth : 8 bits
Scan type : Interlaced
Scan order : Top Field First
Bits/(Pixel*Frame) : 0.136
Stream size : 4.57 GiB (92%)
Color primaries : BT.709
Transfer characteristics : BT.709
Matrix coefficients : BT.709
Audio
ID : 2901 (0xB55)
Menu ID : 1 (0x1)
Format : MPEG Audio
Format version : Version 1
Format profile : Layer 2
Codec ID : 3
Duration : 1h 32mn
Bit rate mode : Constant
Bit rate : 224 Kbps
Channel(s) : 2 channels
Sampling rate : 48.0 KHz
Compression mode : Lossy
Stream size : 149 MiB (3%)
Language : English

Скриншот c названием фильма

Скриншоты


[Профиль] [ЛС]
Показать сообщения:    

Текущее время: Сегодня 09:57

Часовой пояс: GMT



Вы не можете начинать темы
Вы не можете отвечать на сообщения
Вы не можете редактировать свои сообщения
Вы не можете удалять свои сообщения
Вы не можете голосовать в опросах
Вы не можете прикреплять файлы к сообщениям
Вы не можете скачивать файлы