Новогодний Голубой огонек 2015 [2015, Pop, HDTV 1080i] [Россия HD]

 
Автор Сообщение

sergej644 ®

Пол:

Стаж: 4 года 11 месяцев

Сообщений: 6035

Откуда: Soviet Union



Награды: Нет

Торрент-статистика

Создавать темы 04-Янв-2015 10:15

[Цитировать]

Новогодний Голубой огонек 2015
Жанр: Pop
Продолжительность: 05:06:03
Год выпуска: 2015
Описание: Звездных имен на "Голубом огоньке" по традиции будет немало: Полина Гагарина, "Дискотека Авария", Алсу, Лев Лещенко, Николай Басков, Валерий Меладзе, Сергей Лазарев, Нюша, Дима Билан, Любовь Казарновская, Елена Ваенга, Валерия, Юрий Антонов, София Ротару, Таисия Повалий, Натали, Вера Брежнева, Борис Моисеев, Надежда Бабкина, Леонид Агутин, Анжелика Варум, Стас Михайлов, Ани Лорак, Лев Лещенко, Надежда Кадышева и "Золотое кольцо", Наташа Королева, Витас, Лайма Вайкуле, Александр Буйнов, Елена Степаненко, Сосо Павлиашвили, Стас Пьеха, Валерий Леонтьев, Юлия Савичева, Юрий Гальцев и другие.
Качество: HDTV 1080i
Контейнер: TS
Видео кодек: H.264
Аудио кодек: MP2
Видео: H264; 1920x1080 (16:9); 25.000 fps; ~7 865 Kbps
Аудио: MPEG Audio 48000Hz stereo 192 Кбит/сек

Отчёт MediaInfo

General
ID                             : 1 (0x1)
Complete name                  : Q:\2014-2015 НОВОГОДНИЕ\Новогодний Голубой огонек 2015.01.01\Новогодний Голубой огонек 1 часть  2015.01.01.ts
Format                         : MPEG-TS
File size                      : 4.34 GiB
Duration                       : 1h 13mn
Overall bit rate mode          : Variable
Overall bit rate               : 8 478 Kbps
Video
ID                             : 2292 (0x8F4)
Menu ID                        : 1 (0x1)
Format                         : AVC
Format/Info                    : Advanced Video Codec
Format profile                 : High@L4.0
Format settings, CABAC         : Yes
Format settings, ReFrames      : 4 frames
Codec ID                       : 27
Duration                       : 1h 13mn
Bit rate                       : 7 865 Kbps
Width                          : 1 920 pixels
Height                         : 1 080 pixels
Display aspect ratio           : 16:9
Frame rate                     : 25.000 fps
Color space                    : YUV
Chroma subsampling             : 4:2:0
Bit depth                      : 8 bits
Scan type                      : MBAFF
Bits/(Pixel*Frame)             : 0.152
Stream size                    : 4.02 GiB (93%)
Audio
ID                             : 2295 (0x8F7)
Menu ID                        : 1 (0x1)
Format                         : MPEG Audio
Format version                 : Version 1
Format profile                 : Layer 2
Codec ID                       : 3
Duration                       : 1h 13mn
Bit rate mode                  : Constant
Bit rate                       : 192 Kbps
Channel(s)                     : 2 channels
Sampling rate                  : 48.0 KHz
Compression mode               : Lossy
Stream size                    : 101 MiB (2%)
Language                       : English

Скриншоты

[Профиль] [ЛС]
Показать сообщения:    

Текущее время: Сегодня 18:20

Часовой пояс: GMT



Вы не можете начинать темы
Вы не можете отвечать на сообщения
Вы не можете редактировать свои сообщения
Вы не можете удалять свои сообщения
Вы не можете голосовать в опросах
Вы не можете прикреплять файлы к сообщениям
Вы не можете скачивать файлы