Новогодний "Голубой огонек". Части №1-3 (2015.01.01) SATRip

 
Автор Сообщение

MOTrOSS ®

Пол:

Стаж: 2 года

Сообщений: 207

Откуда: CCCP



Награды: 4 (Подробнее)

Друг (Количество: 1) Mega Seeder 1 (Количество: 1) Mega Seeder 2 (Количество: 1)
Торрент-статистика

Создавать темы 31-Дек-2014 23:13

[Цитировать]

- Новогодний "Голубой огонек" (2015.01.01) SATRip -Режиссер / Телекомпания: Россия
Русское название: Новогодний "Голубой огонек"
Год выпуска: 2014
Жанр: ТВ-Шоу
Выпущено: Россия
Описание:
Традиционный новогодний "Голубой огонек" - кульминация новогодней ночи.
В эту праздничную ночь участники старого доброго "Голубого огонька" ждут всех в своей веселой компании!
Создатели шоу и авторы сценария подготовили много сюрпризов. Самые яркие звезды российской эстрады предстанут перед телезрителями в необычных дуэтах и даже трио.
Ирина Аллегрова, Вячеслав Фетисов, Владислав Третьяк и Александр Якушев отметят прошлогодние успехи наших хоккеистов песней "Шайбу!"
Все помнят, что новый год – семейный праздник. Поэтому сегодня будет много семейных дуэтов: Валерия и ее дочь Анна Шульгина, Кристина Орбакайте и Никита Пресняков, Олег и Родион Газмановы.
Только сегодня на сцене целых две Елены Ваенги! Юрий Стоянов так вошел в образ певицы, что вполне вероятно, они теперь начнут выступать вместе.
Звездных имен на "Голубом Огоньке" по традиции будет немало: Юлия Савичева, Николай Басков, Тимур Родригез, Максим Галкин, Надежда Кадышева, Таисия Повалий, Юлия Ковальчук, Лев Лещенко, Тамара Гвердцители, Денис Майданов, Нюша, Игорь Николаев, Юлия Проскурякова, Алсу, Стас Михайлов, София Ротару, Валерий Меладзе, Елена Степаненко, Александр Буйнов, Сосо Павлиашвили, Ани Лорак, Дима Билан, Лайма Вайкуле, Валерий Леонтьев, Надежда Бабкина, Алексей Чумаков, Вера Брежнева, Эмин, Владимир Пресняков, Наталья Подольская, Стас Пьеха, Валерий Меладзе, Григорий Лепс, Дима Билан, Николай Цискаридзе, дуэт "Новые русские бабки", Натали, Евгений Петросян, Анна Семенович и другие.
Заключительная песня - также традиция "Голубого огонька". Сегодня знакомая всем песенка прозвучит в исполнении участников и ведущих шоу, а также всех телезрителей! Присоединяйтесь!
Не забудьте заглянуть на "Голубой огонек"!
Ведущие: Дмитрий Губерниев, Мария Ситтель, Анастасия Макеева, Николай Басков, Лера Кудрявцева, Сергей Лазарев
Продолжительность: 05:06:01
Видеокодек: XviD
Качество видео: SATRip
Битрейт видео: ~1800 kb/s
Размер кадра: 720 x 400
Аудиокодек: AC-3, 2.0ch.
Битрейт аудио: 192 kb/s

MediaInfo:

Формат : AVI
Формат/Информация : Audio Video Interleave
Размер файла : 1,02 Гбайт
Продолжительность : 1 ч. 13 м.
Общий поток : 2000 Кбит/сек
Видео
Идентификатор : 0
Формат : MPEG-4 Visual
Профиль формата : Advanced Simple@L5
Параметр BVOP формата : 2
Параметр QPel формата : Нет
Параметр GMC формата : Без точки перехода
Параметр матрицы формата : Default (H.263)
Идентификатор кодека : XVID
Идентификатор кодека/Подсказка : XviD
Продолжительность : 1 ч. 13 м.
Битрейт : 1796 Кбит/сек
Ширина : 720 пикселей
Высота : 400 пикселей
Соотношение сторон : 16:9
Частота кадров : 25,000 кадров/сек
Цветовое пространство : YUV
Субдискретизация насыщенности : 4:2:0
Битовая глубина : 8 бит
Тип развёртки : Прогрессивная
Метод сжатия : С потерями
Бит/(Пиксели*Кадры) : 0.250
Размер потока : 941 Мбайт (90%)
Библиотека кодирования : XviD 1.2.1 (UTC 2008-12-04)
Аудио
Идентификатор : 1
Формат : AC-3
Формат/Информация : Audio Coding 3
Расширение режима : CM (complete main)
Параметр Endianness формата : Big
Идентификатор кодека : 2000
Продолжительность : 1 ч. 13 м.
Вид битрейта : Постоянный
Битрейт : 192 Кбит/сек
Каналы : 2 канала
Расположение каналов : Front: L R
Частота : 48,0 КГц
Битовая глубина : 16 бит
Метод сжатия : С потерями
Размер потока : 101 Мбайт (10%)
Выравнивание : Соединение по промежуткам
Продолжительность промежутка : 32 мс. (0,80 видеокадр)
Скриншоты:
[Профиль] [ЛС]
Показать сообщения:    

Текущее время: Сегодня 15:59

Часовой пояс: GMT



Вы не можете начинать темы
Вы не можете отвечать на сообщения
Вы не можете редактировать свои сообщения
Вы не можете удалять свои сообщения
Вы не можете голосовать в опросах
Вы не можете прикреплять файлы к сообщениям
Вы не можете скачивать файлы