Новогоднее обращение президента Российской Федерации В.В. Путина (31.12.2014) [2014, Документальный, HDTV 1080i] (Первый HD +4)

 
Автор Сообщение

TorrentFilm ®

Пол:

Стаж: 1 год 11 месяцев

Сообщений: 7741



Награды: Нет

Торрент-статистика

Создавать темы 04-Янв-2015 00:01

[Цитировать]

Новогоднее обращение президента Российской Федерации В.В. Путина
Год выпуска: 2014
Страна: Россия
Жанр: Документальный
Продолжительность: 00:08:28
Перевод: Не требуется
Русские субтитры: нет
Описание: Новогоднее обращение Президента Российской Федерации В. В. Путина
Источник: собственный рип
Доп. информация: Релиз -

Рип чистый. Без посторонних надписей. Выкладывается как есть.
Качество: HDTV 1080i
Контейнер: TS
Видео кодек: AVC
Аудио кодек: MP2
Видео: 1920x1080 (16:9) 25.000 fps 13.5 Mbps, 0.260 bit/pixel
Аудио: MPEG Audio 48000Hz stereo 192 Кбит/сек

Скриншоты

Скринлист

MI

GeneralID : 1 (0x1)Complete name : E:\Новогоднее обращение президента Российской Федерации В.В. Путина (2014, Документальный, HDTV 1080i) (MYDIMKA).tsFormat : MPEG-TSFile size : 639 MiBDuration : 8mn 28sOverall bit rate mode : VariableOverall bit rate : 10.5 Mbps
VideoID : 1603 (0x643)Menu ID : 1 (0x1)Format : AVCFormat/Info : Advanced Video CodecFormat profile : High@L4.0Format settings, CABAC : YesFormat settings, ReFrames : 3 framesCodec ID : 27Duration : 8mn 28sBit rate : 9 826 KbpsWidth : 1 920 pixelsHeight : 1 080 pixelsDisplay aspect ratio : 16:9Frame rate : 25.000 fpsStandard : ComponentColor space : YUVChroma subsampling : 4:2:0Bit depth : 8 bitsScan type : InterlacedScan order : Top Field FirstBits/(Pixel*Frame) : 0.190Stream size : 596 MiB (93%)Color primaries : BT.709Transfer characteristics : BT.709Matrix coefficients : BT.709
AudioID : 2603 (0xA2B)Menu ID : 1 (0x1)Format : MPEG AudioFormat version : Version 1Format profile : Layer 2Codec ID : 3Duration : 8mn 28sBit rate mode : ConstantBit rate : 192 KbpsChannel(s) : 2 channelsSampling rate : 48.0 KHzCompression mode : LossyStream size : 11.6 MiB (2%)Language : Russian
[Профиль] [ЛС]
Показать сообщения:    

Текущее время: Сегодня 00:39

Часовой пояс: GMT



Вы не можете начинать темы
Вы не можете отвечать на сообщения
Вы не можете редактировать свои сообщения
Вы не можете удалять свои сообщения
Вы не можете голосовать в опросах
Вы не можете прикреплять файлы к сообщениям
Вы не можете скачивать файлы