Новичок / The Freshman (1990) WEB-DL 1080p | D, P, A

 
Автор Сообщение

Russian Mafia ®

Пол:

Стаж: 1 год 8 месяцев

Сообщений: 4256



Награды: 10 (Подробнее)

Mega Seeder 4 (Количество: 1) Mega Seeder 5 (Количество: 1) Top Releaser 3 (Количество: 1)
Торрент-статистика

Создавать темы 07-Окт-2016 06:41

[Цитировать]

«Taking care of the family pet is a big responsibility... especially when it belongs to The Family!»
Информация о фильме
Название: Новичок
Оригинальное название: The Freshman
Год выхода: 1990
Жанр: Комедия, криминал
Режиссер: Эндрю Бергман
В ролях: Марлон Брандо, Мэттью Бродерик, Бруно Кёрби, Пенелопа Энн Миллер, Фрэнк Уэйли, Джон Полито, Пол Бенедикт, Ричард Гант, Кеннет Уэлш, Памела Пэйтон-Райт, Максимилиан Шелл, Берт Паркс, Леонардо Чимино, Джанни Руссо, Уоррен Дэвис, Вера Локвуд, Марни Эдвардс, Джеймс Миллингтон, Аманда Смит
О фильме:
Студент-первокурсник кинематографического факультета Нью-Йоркского университета Кларк Келлогг нанимается на летний семестр к богатому дельцу, американцу итальянского происхождения, подозрительно напоминающему Дона Корлеоне. Простодушный и доверчивый провинциал не сразу догадывается, что попал в самую сердцевину американо-итальянской мафии.

Страна: США
Студия: TriStar Pictures
Продолжительность: 01:42:40
Перевод: Профессиональный (полное дублирование)[Варус Видео] + Профессиональный (многоголосый, закадровый)[Первый канал] + Авторский (одноголосый, закадровый)[А.Михалёв]
Файл
Качество: WEB-DL 1080p
Формат: MKV
Кодек: MPEG-4 AVC
Видео: 1920x1080 (16:9), 23,976 fps, MPEG-4 AVC ~12,6 Мbps avg, 0.253 bit/pixel
Аудио: АС3, 48 kHz, 2 ch, ~192.00 kbps avg | русский | Профессиональный (полное дублирование)[Варус Видео]
Аудио: АС3, 48 kHz, 2 ch, ~192.00 kbps avg | русский | Профессиональный (многоголосый, закадровый)[Первый канал]
Аудио: АС3, 48 kHz, 2 ch, ~192.00 kbps avg | русский | Авторский (одноголосый, закадровый)[А.Михалёв]
Аудио: AC3, 48 kHz, 2 ch, ~192.00 kbps avg | украинский | Профессиональный (двухголосый, закадровый)[IHTEP]
Аудио: АС3, 48 kHz, 6 ch, ~384.00 kbps avg | английский | Оригинал
Субтитры: Английские, немецкие, французские, испанские, португальские
Семпл

Инфо-файл

Общее
Уникальный идентификатор : 241843768998966989033680886064463700926 (0xB5F16A688DAA7048A26D5DB63EE363BE)
Полное имя : D:The.Freshman.1990.WEB-DL.(1080p).mkv
Формат : Matroska
Версия формата : Version 4 / Version 2
Размер файла : 10,1 Гбайт
Продолжительность : 1 ч. 42 м.
Режим общего битрейта : Переменный
Общий поток : 14,0 Мбит/сек
Название фильма : The Freshman (1990)
Дата кодирования : UTC 2016-10-07 02:56:00
Программа кодирования : mkvmerge v6.9.1 ('Blue Panther') 64bit built on Apr 18 2014 18:23:38
Библиотека кодирования : libebml v1.3.0 + libmatroska v1.4.1
Видео
Идентификатор : 1
Формат : AVC
Формат/Информация : Advanced Video Codec
Профиль формата : High@L4
Параметр CABAC формата : Да
Параметр ReFrames формата : 4 кадра
Идентификатор кодека : V_MPEG4/ISO/AVC
Продолжительность : 1 ч. 42 м.
Вид битрейта : Переменный
Битрейт : 12,6 Мбит/сек
Максимальный битрейт : 15,0 Мбит/сек
Ширина : 1920 пикселей
Высота : 1080 пикселей
Соотношение сторон : 16:9
Режим частоты кадров : Постоянный
Частота кадров : 23,976 кадра/сек
Цветовое пространство : YUV
Субдискретизация насыщенности : 4:2:0
Битовая глубина : 8 бит
Тип развёртки : Прогрессивная
Бит/(Пиксели*Кадры) : 0.253
Размер потока : 9,03 Гбайт (90%)
Заголовок : The Freshman (1990)
Библиотека кодирования : x264 core 148 r2623 d5b2374
Настройки программы : cabac=1 / ref=4 / deblock=1:-1:-1 / analyse=0x3:0x133 / me=umh / subme=9 / psy=1 / psy_rd=1.00:0.15 / mixed_ref=1 / me_range=24 / chroma_me=1 / trellis=2 / 8x8dct=1 / cqm=0 / deadzone=21,11 / fast_pskip=1 / chroma_qp_offset=-3 / threads=34 / lookahead_threads=5 / sliced_threads=0 / nr=150 / decimate=1 / interlaced=0 / bluray_compat=0 / constrained_intra=0 / bframes=8 / b_pyramid=2 / b_adapt=2 / b_bias=0 / direct=3 / weightb=1 / open_gop=0 / weightp=2 / keyint=120 / keyint_min=61 / scenecut=0 / intra_refresh=0 / rc_lookahead=120 / rc=crf / mbtree=1 / crf=18.0 / qcomp=0.60 / qpmin=0 / qpmax=69 / qpstep=4 / vbv_maxrate=15000 / vbv_bufsize=31250 / crf_max=0.0 / nal_hrd=vbr / filler=0 / ip_ratio=1.40 / aq=3:1.00
Язык : English
Default : Да
Forced : Нет
Цветовой диапазон : Limited
Основные цвета : BT.709
Характеристики трансфера : BT.709
Коэффициенты матрицы : BT.709
Аудио #1
Идентификатор : 2
Формат : AC-3
Формат/Информация : Audio Coding 3
Расширение режима : CM (complete main)
Параметр Endianness формата : Big
Идентификатор кодека : A_AC3
Продолжительность : 1 ч. 42 м.
Вид битрейта : Постоянный
Битрейт : 192 Кбит/сек
Каналы : 2 канала
Расположение каналов : Front: L R
Частота : 48,0 КГц
Метод сжатия : С потерями
Размер потока : 141 Мбайт (1%)
Заголовок : AC3, 2 ch, 192 Kbps, Dub, 'Варус Видео'
Язык : Russian
Default : Да
Forced : Нет
Аудио #2
Идентификатор : 3
Формат : AC-3
Формат/Информация : Audio Coding 3
Расширение режима : CM (complete main)
Параметр Endianness формата : Big
Идентификатор кодека : A_AC3
Продолжительность : 1 ч. 42 м.
Вид битрейта : Постоянный
Битрейт : 192 Кбит/сек
Каналы : 2 канала
Расположение каналов : Front: L R
Частота : 48,0 КГц
Метод сжатия : С потерями
Размер потока : 141 Мбайт (1%)
Заголовок : AC3, 2 ch, 192 Kbps, MVO, 'Первый канал'
Язык : Russian
Default : Нет
Forced : Нет
Аудио #3
Идентификатор : 4
Формат : AC-3
Формат/Информация : Audio Coding 3
Расширение режима : CM (complete main)
Параметр Endianness формата : Big
Идентификатор кодека : A_AC3
Продолжительность : 1 ч. 42 м.
Вид битрейта : Постоянный
Битрейт : 192 Кбит/сек
Каналы : 2 канала
Расположение каналов : Front: L R
Частота : 48,0 КГц
Метод сжатия : С потерями
Размер потока : 141 Мбайт (1%)
Заголовок : AC3, 2 ch, 192 Kbps, AVO, Алексей Михалёв
Язык : Russian
Default : Нет
Forced : Нет
Аудио #4
Идентификатор : 5
Формат : AC-3
Формат/Информация : Audio Coding 3
Расширение режима : CM (complete main)
Параметр Endianness формата : Big
Идентификатор кодека : A_AC3
Продолжительность : 1 ч. 42 м.
Вид битрейта : Постоянный
Битрейт : 192 Кбит/сек
Каналы : 2 канала
Расположение каналов : Front: L R
Частота : 48,0 КГц
Метод сжатия : С потерями
Размер потока : 141 Мбайт (1%)
Заголовок : AC3, 2 ch, 192 Kbps, Українська
Язык : Ukrainian
Default : Нет
Forced : Нет
Аудио #5
Идентификатор : 6
Формат : AC-3
Формат/Информация : Audio Coding 3
Расширение режима : CM (complete main)
Параметр Endianness формата : Big
Идентификатор кодека : A_AC3
Продолжительность : 1 ч. 42 м.
Вид битрейта : Постоянный
Битрейт : 384 Кбит/сек
Каналы : 6 каналов
Расположение каналов : Front: L C R, Side: L R, LFE
Частота : 48,0 КГц
Метод сжатия : С потерями
Размер потока : 282 Мбайт (3%)
Заголовок : AC3, 6 ch, 384 Kbps, Original
Язык : English
Default : Нет
Forced : Нет
Текст #1
Идентификатор : 7
Формат : UTF-8
Идентификатор кодека : S_TEXT/UTF8
Идентификатор кодека/Информация : UTF-8 Plain Text
Язык : English
Default : Нет
Forced : Нет
Текст #2
Идентификатор : 8
Формат : UTF-8
Идентификатор кодека : S_TEXT/UTF8
Идентификатор кодека/Информация : UTF-8 Plain Text
Язык : German
Default : Нет
Forced : Нет
Текст #3
Идентификатор : 9
Формат : UTF-8
Идентификатор кодека : S_TEXT/UTF8
Идентификатор кодека/Информация : UTF-8 Plain Text
Язык : French
Default : Нет
Forced : Нет
Текст #4
Идентификатор : 10
Формат : UTF-8
Идентификатор кодека : S_TEXT/UTF8
Идентификатор кодека/Информация : UTF-8 Plain Text
Язык : Spanish
Default : Нет
Forced : Нет
Текст #5
Идентификатор : 11
Формат : UTF-8
Идентификатор кодека : S_TEXT/UTF8
Идентификатор кодека/Информация : UTF-8 Plain Text
Язык : Portuguese
Default : Нет
Forced : Нет
Меню
00:00:00.000 : en:Chapter 01
00:03:20.570 : en:Chapter 02
00:07:29.380 : en:Chapter 03
00:19:57.020 : en:Chapter 04
00:26:38.280 : en:Chapter 05
00:34:58.060 : en:Chapter 06
00:45:22.650 : en:Chapter 07
00:59:03.760 : en:Chapter 08
01:07:36.120 : en:Chapter 09
01:14:51.640 : en:Chapter 10
01:26:47.870 : en:Chapter 11
01:39:01.230 : en:Chapter 12

Скриншоты

[Профиль] [ЛС]
Кто просматривает тему:

Форум Тема Автор Размер
Зарубежные мультфильмы 7-ой гном / Der 7bte Zwerg (Борис Альинович) [2014 г., мультфильм, DVDRip] BOSS 1.37 GB
3D Мультфильмы 7-ой гном в 3Д / Der 7bte Zwerg / The 7th Dwarf 3D (Борис Альинович / Boris Aljinovic) [2014, Мультфильм, Приключения, Семейный, BDremux, 1080p] BD3D BOSS 25.43 GB
Путешествия и приключения Алтай - Гималаи (Николай Константинович Рерих) [2007, Путешествия, аудиокнига, MP3, 160 kbps, Герасимов Вячеслав] Magnat 1.07 GB
Фильмы 2015 года Анклав / Enklava (Горан Радованович / Goran Radovanovic) [2015 г., Сербия, Германия, Драма, DVDRip] DVO + VO + Sub TorrentFilm 1.35 GB
Фильмы 2015 года Анклав / Enklava (Горан Радованович / Goran Radovanovic) [2015, Сербия, Германия, Драма, DVDRip] Sub Rus TorrentFilm 1.37 GB
Pop Анна Семенович - Восемнадцать Plus (18+) (2015) MP3 BOSS 117 MB
Фантастика и фэнтези Артем Каменистый - РАДИУС ПОРАЖЕНИЯ [Дмитрий(ДД)Хазанович, 2015, Фантастика, 192 kbps] Garik014 1.32 GB
Компьютерная литература (Программирование) Библиотека профессионала - Несен А.В. - Microsoft Word 2010. От новичка к профессионалу [2011, PDF, RUS] TorrentFilm 26 MB
Показать сообщения:    

Текущее время: Сегодня 18:38

Часовой пояс: GMT



Вы не можете начинать темы
Вы не можете отвечать на сообщения
Вы не можете редактировать свои сообщения
Вы не можете удалять свои сообщения
Вы не можете голосовать в опросах
Вы не можете прикреплять файлы к сообщениям
Вы не можете скачивать файлы