Новеллы о космосе (Лев Атаманов) [1973, СССР, Рисованный мультфильм, WEBRip]

 
Автор Сообщение

TorrentFilm ®

Пол:

Стаж: 2 года

Сообщений: 7741



Награды: Нет

Торрент-статистика

Создавать темы 20-Янв-2016 00:08

[Цитировать]

Новеллы о космосе
Страна: СССР
Жанр: Рисованный мультфильм
Продолжительность: 00:10:05
Год выпуска: 1973
Русские субтитры: нет
Режиссёр: Лев Атаманов
Описание: В 1 новелле рассказывается о космонавте, который опоздал к вылету космического корабля, потому что вынужден был ублажать капризы маленькой девочки. 2 новелла посвящена правилам космического движения и рассказу о маленькой девочке, которая их нарушала, в 3-ей новелле рассказывается что лучше дружить планетами, а не воевать.
Доп. информация: «Союзмультфильм»
Cценарий: Р.Хуснутдинова
Оператор: М.Друян
Композитор: С.Губаидулина
Звукооператор:Г.Мартынюк
Раздача группы:
Качество: WEBRip
Формат: AVI
Видео: 704x528 (1.33:1), 25 fps, XviD build 50 ~1595 kbps avg, 0.17 bit/pixel
Аудио: 44.100 kHz, MPEG Layer 3, 2 ch, ~192.00 kbps avg
Субтитры: нет

Подробные технические данные

Format : AVIFormat/Info : Audio Video InterleaveFile size : 130 MiBDuration : 10mn 5sOverall bit rate : 1 800 KbpsWriting application : MEncoder SVN-r30881(20100311-gcc4.3.3)Writing library : MPlayer
VideoID : 0Format : MPEG-4 VisualFormat profile : Advanced Simple@L5Format settings, BVOP : 2Format settings, QPel : NoFormat settings, GMC : No warppointsFormat settings, Matrix : Default (H.263)Codec ID : XVIDCodec ID/Hint : XviDDuration : 10mn 5sBit rate : 1 595 KbpsWidth : 704 pixelsHeight : 528 pixelsDisplay aspect ratio : 1.227Original display aspect ratio : 4:3Frame rate : 25.000 fpsColor space : YUVChroma subsampling : 4:2:0Bit depth : 8 bitsScan type : ProgressiveCompression mode : LossyBits/(Pixel*Frame) : 0.172Stream size : 115 MiB (89%)Writing library : XviD 1.2.1 (UTC 2008-12-04)
AudioID : 1Format : MPEG AudioFormat version : Version 1Format profile : Layer 3Mode : Joint stereoMode extension : MS StereoCodec ID : 55Codec ID/Hint : MP3Duration : 10mn 5sBit rate mode : ConstantBit rate : 192 KbpsChannel(s) : 2 channelsSampling rate : 44.1 KHzCompression mode : LossyDelay relative to video : 40msStream size : 13.9 MiB (11%)Alignment : Aligned on interleavesInterleave, duration : 26 ms (0.65 video frame)Interleave, preload duration : 522 ms

Скриншоты

[Профиль] [ЛС]
Показать сообщения:    

Текущее время: Сегодня 22:31

Часовой пояс: GMT



Вы не можете начинать темы
Вы не можете отвечать на сообщения
Вы не можете редактировать свои сообщения
Вы не можете удалять свои сообщения
Вы не можете голосовать в опросах
Вы не можете прикреплять файлы к сообщениям
Вы не можете скачивать файлы