Новейший завет / Le tout nouveau testament (Жако ван Дормель / Jaco van Dormael) [2015, Бельгия, Франция, Люксембург, Комедия, WEB-DLRip] Dub (iTunes)

 
Автор Сообщение

TorrentFilm ®

Пол:

Стаж: 2 года

Сообщений: 7741



Награды: Нет

Торрент-статистика

Создавать темы 24-Дек-2015 00:22

[Цитировать]

Новейший завет / Le tout nouveau testament
Страна: Бельгия, Франция, Люксембург
Жанр: Комедия
Год выпуска: 2015
Продолжительность: 01:54:30
Перевод: Профессиональный (дублированный) iTunes
Cубтитры: нет
Режиссер: Жако ван Дормель / Jaco van Dormael
В ролях: Бенуа Пульворд, Катрин Денёв, Франсуа Дамиенс, Иоланда Моро, Пили Груан, Лаура Верлинден, Серж Ларивье, Дидье Де Нек, Марко Лоренцини, Ромен Желен
Описание: Да, Бог существует. Но он совсем не такой, каким мы его представляли. Он живет в Брюсселе, и у него есть не только сын, но и дочь. Она сбегает из дома и отправляется в наш мир искать приключения и испытывать терпение своего отца на прочность. Надолго ли его хватит?..
Сэмпл: http://multi-up.com/1080367
Качество видео: WEB-DLRip
Формат видео: AVI
Видео: 720x304 (2.37:1), 24 fps, XviD build 73 ~1438 kbps avg, 0.27 bit/pixel
Аудио: 48 kHz, AC3 Dolby Digital, 3/2 (L,C,R,l,r) + LFE ch, ~384 kbps

MediaInfo

Формат : AVI
Формат/Информация : Audio Video Interleave
Размер файла : 1,47 Гбайт
Продолжительность : 1 ч. 54 м.
Общий поток : 1832 Кбит/сек
Программа кодирования : VirtualDubMod 1.5.10.3 | www.virtualdub-fr.org || (build 2550/release)
Библиотека кодирования : VirtualDubMod build 2550/release
Видео
Идентификатор : 0
Формат : MPEG-4 Visual
Профиль формата : Advanced Simple@L5
Параметр BVOP формата : 1
Параметр QPel формата : Нет
Параметр GMC формата : Без точки перехода
Параметр матрицы формата : Выборочная
Идентификатор кодека : XVID
Идентификатор кодека/Подсказка : XviD
Продолжительность : 1 ч. 54 м.
Битрейт : 1439 Кбит/сек
Ширина : 720 пикселей
Высота : 304 пикселя
Соотношение сторон : 2,35:1
Частота кадров : 24,000 кадра/сек
Цветовое пространство : YUV
Субдискретизация насыщенности : 4:2:0
Битовая глубина : 8 бит
Тип развёртки : Прогрессивная
Метод сжатия : С потерями
Бит/(Пиксели*Кадры) : 0.274
Размер потока : 1,15 Гбайт (79%)
Библиотека кодирования : XviD 73
Аудио
Идентификатор : 1
Формат : AC-3
Формат/Информация : Audio Coding 3
Расширение режима : CM (complete main)
Параметр Endianness формата : Big
Идентификатор кодека : 2000
Продолжительность : 1 ч. 54 м.
Вид битрейта : Постоянный
Битрейт : 384 Кбит/сек
Каналы : 6 каналов
Расположение каналов : Front: L C R, Side: L R, LFE
Частота : 48,0 КГц
Частота кадров : 31,250 кадров/сек (1536 spf)
Метод сжатия : С потерями
Размер потока : 315 Мбайт (21%)
Выравнивание : Разделение по промежуткам
Продолжительность промежутка : 42 мс. (1,00 видеокадр)
Время предзагрузки промежутка : 500 мс.

Скриншоты

Сравнениеhttp://screenshotcomparison.com/comparison/155176/picture:0 http://torrentfilm.net/forum/viewtopic.php?t=5136775
[Профиль] [ЛС]
Кто просматривает тему:

Форум Тема Автор Размер
Компьютерная литература Windows 10. Новейший самоучитель (Виталий Леонтьев) [2015, Компьютерная литература] Garik014 17 MB
Компьютерная литература Виталий Леонтьев - Office 2016. Новейший самоучитель (2015) PDF Garik014 11 MB
Научная и техническая литература Виталий Леонтьев - Новейший самоучитель. Android для планшетов и смартфонов (2015) PDF достали все 10 MB
Компьютерная литература (Программирование) Компьютерные книги Виталия Леонтьева - Леонтьев В.П. - Office 2016. Новейший самоучитель [2015, PDF, RUS] TorrentFilm 11 MB
Компьютерная литература (Программирование) Компьютерные книги Виталия Леонтьева - Леонтьев В.П. - Windows 10. Новейший самоучитель [2015, PDF, RUS] TorrentFilm 17 MB
Фильмы (HD Rips | 720p, 1080p) Новейший завет / Le tout nouveau testament (2015) WEB-DL 1080p | iTunes достали все 3.9 GB
Фильмы (HD Rips | 720p, 1080p) Новейший завет / Le tout nouveau testament (2015) WEB-DL 720p | iTunes BOSS 3.5 GB
Фильмы 2015 года Новейший завет / Le tout nouveau testament (2015) WEB-DLRip | iTunes BOSS 1.46 GB
Показать сообщения:    

Текущее время: Сегодня 04:45

Часовой пояс: GMT



Вы не можете начинать темы
Вы не можете отвечать на сообщения
Вы не можете редактировать свои сообщения
Вы не можете удалять свои сообщения
Вы не можете голосовать в опросах
Вы не можете прикреплять файлы к сообщениям
Вы не можете скачивать файлы