Новейший завет / Le tout nouveau testament (2015) WEB-DLRip-AVC | iTunes

 
Автор Сообщение

достали все ®

Пол:

Стаж: 1 год 8 месяцев

Сообщений: 6561



Награды: 12 (Подробнее)

Mega Releaser 3 (Количество: 1) Mega Releaser 1 (Количество: 1) Mega Seeder 1 (Количество: 1)
Торрент-статистика

Создавать темы 21-Дек-2015 05:03

[Цитировать]

Информация о фильме
Название: Новейший завет
Оригинальное название: Le tout nouveau testament
Год выпуска: 2015
Страна: Бельгия, Франция, Люксембург
Жанр: комедия-Перевод: Дубляж - [Лицензия / iTunes]
Продолжительность: 01:54:30-Режиссер: Жако ван Дормель
В ролях: Бенуа Пульворд (Dieu), Катрин Денёв (Martine), Франсуа Дамиенс (François), Иоланда Моро (La femme de Dieu), Пили Груан (Ea), Лаура Верлинден (Aurélie), Серж Ларивье (Marc), Дидье Де Нек (Jean-Claude), Марко Лоренцини (Victor), Ромен Желен (Willy), Анна Тента (Xenia, l'Allemande), Йохан Хелденберг (Le prêtre)-Описание:
Да, Бог существует. Но он совсем не такой, каким мы его представляли. Он живет в Брюсселе, и у него есть не только сын, но и дочь. Она сбегает из дома и отправляется в наш мир искать приключения и испытывать терпение своего отца на прочность. Надолго ли его хватит?..-Рейтинг:
-Качество: WEB-DLRip-AVC
Формат: MKV
Видео: AVC, 1024x432 (2.35:1), 2341 kbps, 24 fps, 0,220 bpp
Аудио: AC3 / 5.1 / 48 kHz / 384 kbps / 16 bit-Релиз от: by schultz

ОтчетМедиаИнфо

General
Unique ID : 209780996196015305019083762872446599334 (0x9DD259A8EAEC4EFB87AB406E3997C0A6)
Complete name : D:downloadH0Beiwiy.3aBet.2015.WEB-DLRip-AVC by schultz R.G.Resident.mkv
Format : Matroska
Format version : Version 2
File size : 2.18 GiB
Duration : 1h 54mn
Overall bit rate : 2 727 Kbps
Encoded date : UTC 2015-12-20 23:38:41
Writing application : mkvmerge v6.1.0 ('Old Devil') built on Mar 4 2013 09:10:42
Writing library : libebml v1.3.0 + libmatroska v1.4.0
Video
ID : 1
Format : AVC
Format/Info : Advanced Video Codec
Format profile : High@L4.1
Format settings, CABAC : Yes
Format settings, ReFrames : 12 frames
Codec ID : V_MPEG4/ISO/AVC
Duration : 1h 54mn
Bit rate : 2 341 Kbps
Width : 1 024 pixels
Height : 432 pixels
Display aspect ratio : 2.35:1
Frame rate : 24.000 fps
Color space : YUV
Chroma subsampling : 4:2:0
Bit depth : 8 bits
Scan type : Progressive
Bits/(Pixel*Frame) : 0.220
Stream size : 1.83 GiB (84%)
Writing library : x264 core 130 r2273 b3065e6
Encoding settings : cabac=1 / ref=12 / deblock=1:-2:-2 / analyse=0x3:0x113 / me=umh / subme=11 / psy=1 / psy_rd=1.00:0.15 / mixed_ref=1 / me_range=32 / chroma_me=1 / trellis=2 / 8x8dct=1 / cqm=0 / deadzone=21,11 / fast_pskip=1 / chroma_qp_offset=-3 / threads=12 / lookahead_threads=2 / sliced_threads=0 / nr=0 / decimate=0 / interlaced=0 / bluray_compat=0 / constrained_intra=0 / bframes=9 / b_pyramid=2 / b_adapt=2 / b_bias=0 / direct=3 / weightb=1 / open_gop=0 / weightp=2 / keyint=240 / keyint_min=23 / scenecut=40 / intra_refresh=0 / rc_lookahead=40 / rc=2pass / mbtree=1 / bitrate=2341 / ratetol=1.0 / qcomp=0.60 / qpmin=0 / qpmax=69 / qpstep=4 / cplxblur=20.0 / qblur=0.5 / vbv_maxrate=17500 / vbv_bufsize=14000 / nal_hrd=none / ip_ratio=1.40 / aq=1:0.80
Default : Yes
Forced : No
Audio
ID : 2
Format : AC-3
Format/Info : Audio Coding 3
Mode extension : CM (complete main)
Codec ID : A_AC3
Duration : 1h 54mn
Bit rate mode : Constant
Bit rate : 384 Kbps
Channel(s) : 6 channels
Channel positions : Front: L C R, Side: L R, LFE
Sampling rate : 48.0 KHz
Bit depth : 16 bits
Compression mode : Lossy
Stream size : 315 MiB (14%)
Default : Yes
Forced : No

Скриншоты

[Профиль] [ЛС]
Кто просматривает тему:

Форум Тема Автор Размер
Компьютерная литература Windows 10. Новейший самоучитель (Виталий Леонтьев) [2015, Компьютерная литература] Garik014 17 MB
Компьютерная литература Виталий Леонтьев - Office 2016. Новейший самоучитель (2015) PDF Garik014 11 MB
Научная и техническая литература Виталий Леонтьев - Новейший самоучитель. Android для планшетов и смартфонов (2015) PDF достали все 10 MB
Компьютерная литература (Программирование) Компьютерные книги Виталия Леонтьева - Леонтьев В.П. - Office 2016. Новейший самоучитель [2015, PDF, RUS] TorrentFilm 11 MB
Компьютерная литература (Программирование) Компьютерные книги Виталия Леонтьева - Леонтьев В.П. - Windows 10. Новейший самоучитель [2015, PDF, RUS] TorrentFilm 17 MB
Фильмы (HD Rips | 720p, 1080p) Новейший завет / Le tout nouveau testament (2015) WEB-DL 1080p | iTunes достали все 3.9 GB
Фильмы (HD Rips | 720p, 1080p) Новейший завет / Le tout nouveau testament (2015) WEB-DL 720p | iTunes BOSS 3.5 GB
Фильмы 2015 года Новейший завет / Le tout nouveau testament (2015) WEB-DLRip | iTunes BOSS 1.46 GB
Показать сообщения:    

Текущее время: Сегодня 06:07

Часовой пояс: GMT



Вы не можете начинать темы
Вы не можете отвечать на сообщения
Вы не можете редактировать свои сообщения
Вы не можете удалять свои сообщения
Вы не можете голосовать в опросах
Вы не можете прикреплять файлы к сообщениям
Вы не можете скачивать файлы