Ни пуха, ни пера (Рим Шарафутдинов) [2014, Россия, мультфильм, WEBRip-AVC]

 
Автор Сообщение

TorrentFilm ®

Пол:

Стаж: 2 года

Сообщений: 7741



Награды: Нет

Торрент-статистика

Создавать темы 21-Фев-2016 00:08

[Цитировать]

Ни пуха, ни пера
Страна: Россия (республика Башкортостан)
Жанр: мультфильм
Продолжительность: 00:09:43
Год выпуска: 2014
Перевод: не требуется
Русские субтитры: нет
Режиссёр: Рим Шарафутдинов
Описание: Эпизодические персонажи мультфильма "Алдар и серый волк" на этот раз - главные герои. Три охотника и их собачонка носятся по лесам, по лугам в погоне за любой дичью. Большей частью - безрезультатно.
Качество: WEBRip-AVC
Формат: MP4
Видео: 1774 kbps, 1280х720 (16:9), 25.000 fps, AVC (High@L3.1)
Аудио: 192 kbps, 44.1 kHz, 2 channels, AAC (LC)
Субтитры: отсутствуют

Подробные технические данные

GeneralComplete name : Ни пуха, ни пера (2014).mp4Format : MPEG-4Format profile : Base Media / Version 2Codec ID : mp42File size : 137 MiBDuration : 9mn 43sOverall bit rate mode : VariableOverall bit rate : 1 968 KbpsEncoded date : UTC 2015-03-31 14:15:04Tagged date : UTC 2015-03-31 14:15:04gsst : 0gstd : 584026gssd : B4A7D6EE5gshh : r5---sn-n8v7sn7d.googlevideo.com
VideoID : 1Format : AVCFormat/Info : Advanced Video CodecFormat profile : High@L3.1Format settings, CABAC : YesFormat settings, ReFrames : 1 frameFormat settings, GOP : M=1, N=60Codec ID : avc1Codec ID/Info : Advanced Video CodingDuration : 9mn 43sBit rate : 1 774 KbpsMaximum bit rate : 10.8 MbpsWidth : 1 280 pixelsHeight : 720 pixelsDisplay aspect ratio : 16:9Frame rate mode : ConstantFrame rate : 25.000 fpsColor space : YUVChroma subsampling : 4:2:0Bit depth : 8 bitsScan type : ProgressiveBits/(Pixel*Frame) : 0.077Stream size : 123 MiB (90%)Tagged date : UTC 2015-03-31 14:15:22
AudioID : 2Format : AACFormat/Info : Advanced Audio CodecFormat profile : LCCodec ID : 40Duration : 9mn 43sBit rate mode : VariableBit rate : 192 KbpsMaximum bit rate : 201 KbpsChannel(s) : 2 channelsChannel positions : Front: L RSampling rate : 44.1 KHzCompression mode : LossyStream size : 13.4 MiB (10%)Title : IsoMedia File Produced by Google, 5-11-2011Language : EnglishEncoded date : UTC 2015-03-31 14:15:13Tagged date : UTC 2015-03-31 14:15:22

Скриншоты

[Профиль] [ЛС]
Кто просматривает тему:

Показать сообщения:    

Текущее время: Сегодня 00:09

Часовой пояс: GMT



Вы не можете начинать темы
Вы не можете отвечать на сообщения
Вы не можете редактировать свои сообщения
Вы не можете удалять свои сообщения
Вы не можете голосовать в опросах
Вы не можете прикреплять файлы к сообщениям
Вы не можете скачивать файлы