Ни минуты покоя / Une heure de tranquillité (2014) BDRip 720p | iTunes

 
Автор Сообщение

достали все ®

Пол:

Стаж: 1 год 8 месяцев

Сообщений: 6581



Награды: 12 (Подробнее)

Top Releaser 3 (Количество: 1) Mega Seeder 4 (Количество: 1) Mega Seeder 5 (Количество: 1)
Торрент-статистика

Создавать темы 06-Дек-2015 04:09

[Цитировать]

Информация о фильме
Название: Ни минуты покоя
Оригинальное название: Une heure de tranquillité
Год выхода: 2014
Жанр: комедия
Режиссер: Патрис Леконт
В ролях: Кристиан Клавье, Кароль Буке, Валери Боннетон, Росси де Пальма, Стефан Де Гродт, Себастьен Кастро, Кристиан Шарметан, Арно Анриет, Рикардо Арсиага, Элиша Камачо
О фильме: У дантиста Мишеля Лепру — выходной. Поэтому он решил неспешно прогуляться по блошиному рынку, радуясь жизни. Но, раскопав в развалах древний (1958 года выпуска) виниловый диск с концертом кларнетиста Нила Юара, Мишель помчался домой, чтобы срочно послушать любимого музыканта. Но! Весь мир как будто сговорился лишить врача-меломана счастья. Жена потребовала серьезного разговора «о нас». В любовнице заговорила совесть, и она (любовница, а не совесть) решила во всем признаться жене Мишеля. Работяги-иммигранты устроили в квартире потоп. Взрослый сын в борьбе с буржуазными устоями привел на постой многочисленную филиппинскую семью. А Мишелю в этом бедламе нужно найти час, всего лишь час, чтобы послушать любимого музыканта…

Выпущено: Франция / Canal+ [fr], CZ Productions, Fidélité Films, Orange Cinéma Séries, TF1 Films Production, Wild Bunch
Продолжительность: 01:19:10
Озвучивание: Дублированное [iTunes]
Файл
Формат: MKV
Качество: BDRip 720p
Видео: MPEG-4 AVC, 4811 kb/s, 1280x536
Аудио: Russian: AC3, 384 kb/s (6 ch) / French: DTS, 1510 kb/s (6 ch)

MI

Format : Matroska
Format version : Version 4 / Version 2
File size : 3.71 GiB
Duration : 1h 19mn
Overall bit rate : 6 703 Kbps
Encoded date : UTC 2015-12-05 19:12:40
Writing application : mkvmerge v8.3.0 ('Over the Horizon') 64bit
Writing library : libebml v1.3.1 + libmatroska v1.4.2
Video
ID : 1
Format : AVC
Format/Info : Advanced Video Codec
Format profile : High@L3.1
Format settings, CABAC : Yes
Format settings, ReFrames : 4 frames
Codec ID : V_MPEG4/ISO/AVC
Duration : 1h 19mn
Bit rate : 4 811 Kbps
Width : 1 280 pixels
Height : 536 pixels
Display aspect ratio : 2.40:1
Frame rate mode : Constant
Frame rate : 23.976 fps
Color space : YUV
Chroma subsampling : 4:2:0
Bit depth : 8 bits
Scan type : Progressive
Bits/(Pixel*Frame) : 0.292
Stream size : 2.59 GiB (70%)
Writing library : x264 core 146 r2538 121396c
Encoding settings : cabac=1 / ref=4 / deblock=1:-1:-1 / analyse=0x3:0x113 / me=umh / subme=7 / psy=1 / psy_rd=1.00:0.00 / mixed_ref=1 / me_range=16 / chroma_me=1 / trellis=1 / 8x8dct=1 / cqm=0 / deadzone=21,11 / fast_pskip=1 / chroma_qp_offset=-2 / threads=12 / lookahead_threads=2 / sliced_threads=0 / nr=0 / decimate=1 / interlaced=0 / bluray_compat=0 / constrained_intra=0 / bframes=3 / b_pyramid=2 / b_adapt=1 / b_bias=0 / direct=1 / weightb=1 / open_gop=0 / weightp=2 / keyint=240 / keyint_min=23 / scenecut=40 / intra_refresh=0 / rc_lookahead=40 / rc=2pass / mbtree=1 / bitrate=4811 / ratetol=1.0 / qcomp=0.60 / qpmin=0 / qpmax=69 / qpstep=4 / cplxblur=20.0 / qblur=0.5 / ip_ratio=1.40 / aq=1:1.00
Default : Yes
Forced : No
Audio #1
ID : 2
Format : AC-3
Format/Info : Audio Coding 3
Mode extension : CM (complete main)
Format settings, Endianness : Big
Codec ID : A_AC3
Duration : 1h 19mn
Bit rate mode : Constant
Bit rate : 384 Kbps
Channel(s) : 6 channels
Channel positions : Front: L C R, Side: L R, LFE
Sampling rate : 48.0 KHz
Bit depth : 16 bits
Compression mode : Lossy
Stream size : 217 MiB (6%)
Language : Russian
Default : Yes
Forced : No
Audio #2
ID : 3
Format : DTS
Format/Info : Digital Theater Systems
Mode : 16
Format settings, Endianness : Big
Codec ID : A_DTS
Duration : 1h 19mn
Bit rate mode : Constant
Bit rate : 1 509 Kbps
Channel(s) : 6 channels
Channel positions : Front: L C R, Side: L R, LFE
Sampling rate : 48.0 KHz
Bit depth : 24 bits
Compression mode : Lossy
Stream size : 855 MiB (23%)
Language : English
Default : No
Forced : No

Скриншоты



[Профиль] [ЛС]
Кто просматривает тему:

Показать сообщения:    

Текущее время: Сегодня 18:28

Часовой пояс: GMT



Вы не можете начинать темы
Вы не можете отвечать на сообщения
Вы не можете редактировать свои сообщения
Вы не можете удалять свои сообщения
Вы не можете голосовать в опросах
Вы не можете прикреплять файлы к сообщениям
Вы не можете скачивать файлы