Ничего себе поездочка 2 / Joy Ride: Dead Ahead (Луис Морно / Louis Morneau) [2008, США, Канада, боевик, триллер, DVDRip] MVO

 
Автор Сообщение

TorrentFilm ®

Пол:

Стаж: 2 года

Сообщений: 7741



Награды: Нет

Торрент-статистика

Создавать темы 29-Дек-2014 00:15

[Цитировать]

Ничего себе поездочка 2 / Joy Ride: Dead Ahead
Страна: США, Канада
Жанр: боевик, триллер
Год выпуска: 2008
Продолжительность: 01:27:24
Перевод: Профессиональный (многоголосый закадровый)
Cубтитры: нет

Режиссер: Луис Морно / Louis Morneau
В ролях: Ники Линн Ококс, Дэниэл Бойло, Роб Карпентер, Ребекка Дэвис, Марк Гиббон, Лаура Джордан, Крис Калун, Кэтрин Киркпатрик, Кайл Шмид, Шон Тайсон
Описание: Четверо подростков, отправившихся в Лас Вегас на концерт любимой рок-группы совершают фатальную ошибку - бросив сломавшийся автомобиль, они угоняют машину садиста-социопата по прозвищу Ржавый Ноготь
Качество видео: DVDRip
Формат видео: AVI
Видео: 704x400 (1.76:1), 25 fps, XviD build 73 ~1990 kbps avg, 0.28 bit/pixel
Аудио: 48 kHz, AC3 Dolby Digital, 3/2 (L,C,R,l,r) + LFE ch, ~384 kbps

MediaInfo

Общее
Полное имя : J:\Joy.Ride_Dead.Ahead.2008.dvdrip_[1.46]_[teko].avi
Формат : AVI
Формат/Информация : Audio Video Interleave
Размер файла : 1,46 Гбайт
Продолжительность : 1 ч. 27 м.
Общий поток : 2384 Кбит/сек
Программа кодирования : VirtualDubMod 1.5.10.3 | www.virtualdub-fr.org || (build 2550/release)
Библиотека кодирования : VirtualDubMod build 2550/release
Видео
Идентификатор : 0
Формат : MPEG-4 Visual
Профиль формата : Advanced Simple@L5
Параметр BVOP формата : 1
Параметр QPel формата : Нет
Параметр GMC формата : Без точки перехода
Параметр матрицы формата : Выборочная
Идентификатор кодека : XVID
Идентификатор кодека/Подсказка : XviD
Продолжительность : 1 ч. 27 м.
Битрейт : 1991 Кбит/сек
Ширина : 704 пикселя
Высота : 400 пикселей
Соотношение сторон : 16:9
Частота кадров : 25,000 кадров/сек
Цветовое пространство : YUV
Субдискретизация насыщенности : 4:2:0
Битовая глубина : 8 бит
Тип развёртки : Прогрессивная
Метод сжатия : С потерями
Бит/(Пиксели*Кадры) : 0.283
Размер потока : 1,22 Гбайт (83%)
Библиотека кодирования : XviD 73
Аудио
Идентификатор : 1
Формат : AC-3
Формат/Информация : Audio Coding 3
Расширение режима : CM (complete main)
Параметр Endianness формата : Big
Идентификатор кодека : 2000
Продолжительность : 1 ч. 27 м.
Вид битрейта : Постоянный
Битрейт : 384 Кбит/сек
Каналы : 6 каналов
Расположение каналов : Front: L C R, Side: L R, LFE
Частота : 48,0 КГц
Битовая глубина : 16 бит
Метод сжатия : С потерями
Размер потока : 240 Мбайт (16%)
Выравнивание : Разделение по промежуткам
Продолжительность промежутка : 40 мс. (1,00 видеокадр)
Время предзагрузки промежутка : 500 мс.

Скриншоты

Релиз группы:
--
[Профиль] [ЛС]

Создавать темы 06-Авг-2015 22:53 (спустя 7 месяцев 8 дней)

Топик был перенесен из форума Фильмы до 2014 года в форум Фильмы до 2012 года
sergej644
 

Создавать темы 12-Июн-2016 08:51 (спустя 1 год 5 месяцев)

Топик был перенесен из форума Фильмы 2011 года в форум Фильмы 2006-2008 года
Russian Mafia
 
Кто просматривает тему:

Форум Тема Автор Размер
Боевики, детективы, триллеры Акунин Борис - Смерть на брудершафт. Фильма восьмая. Ничего святого [Сергей Чонишвили, 2012 г., 256 kbps, MP3] sergej644 499 MB
Зарубежные сериалы Все в порядке, это любовь / Просто это любовь / Ничего страшного, это любовь / It's Okay It's Love [01-16 из 16](2014) HDTVRip 720р | L2 Белочка 18.51 GB
Зарубежные сериалы Все в порядке, это любовь / Просто это любовь / Ничего страшного, это любовь / It's Okay It's Love [01-16 из 16](2014) HDTVRip | L2 Белочка 9.64 GB
Фильмы 2009 года Все или ничего / High Life (Гари Йэтс / Gary Yates) [2009, Канада, комедия, криминал, HDRip] MVO TorrentFilm 742 MB
Фильмы (HD Rips | 720p, 1080p) Всё или ничего / The Longest Yard (2005) WEB-DL 1080p Russian Mafia 5.23 GB
Rock Кофе и чувства - Мне Не Хочется Ничего, Даже Находиться (2015) MP3 достали все 83 MB
Фильмы (HD Rips | 720p, 1080p) Не говори ничего / Wish You Were Here (2012) BDRip 720p sergej644 4.5 GB
Фильмы 2014 года Ничего себе поездочка 3 / Joy Ride 3 (Деклан О’Брайэн / Declan O\'Brien) [2014, США, триллер, BDRip-AVC] VO (datynet) + Sub Rus + Original Eng bot 2.18 GB
Показать сообщения:    

Текущее время: Сегодня 00:40

Часовой пояс: GMT



Вы не можете начинать темы
Вы не можете отвечать на сообщения
Вы не можете редактировать свои сообщения
Вы не можете удалять свои сообщения
Вы не можете голосовать в опросах
Вы не можете прикреплять файлы к сообщениям
Вы не можете скачивать файлы