Нити / Strіngs (2015) WEB-DL 720p | L1

 
Автор Сообщение

достали все ®

Пол:

Стаж: 1 год 8 месяцев

Сообщений: 6613



Награды: 12 (Подробнее)

Mega Releaser 2 (Количество: 1) Mega Seeder 2 (Количество: 1) Top Releaser 4 (Количество: 1)
Торрент-статистика

Создавать темы 28-Май-2015 15:40

[Цитировать]

Информация о фильме
Название: Нити
Оригинальное название: Strіngs
Год выхода: 2015
Жанр: драма, музыка
Режиссер: Даниэль Дуран
В ролях: Мария Белло, Джош Дюамель, Лора Дерн, Лукас Тилл, Том Эверетт Скотт, Джей Хед, Катрина Норма, Керингтон Пэйн, Шамир Андерсон, Sharlene Taulé
О фильме: Джош живет в Нью-Йорке и больше всего на свете любит музыку. После неприятного инцидента, однако, он вынужден покинуть город и переехать в провинциальный городок. Мало того, что здесь ничего не происходит , так еще скоро выясняется что почти у всех жителей здесь тяжелое прошлое...

Выпущено: Канада, США / 2 Wolves Films, Strіngs of Films
Продолжительность: 01:53:47
Озвучивание: Любительское (одноголосое) [Виктор Береговых], перевод [Михаил Васильев]
Файл
Формат: MKV
Качество: WEB-DL 720p
Видео: 3894 kb/s, 1280x528
Аудио: Russian: AC3, 192 kb/s (2 ch) / English: AC3, 384 kb/s (6 ch)
Субтитры: Russian [Михаил Васильев]

MI

Format : Matroska
Format version : Version 4 / Version 2
File size : 3.62 GiB
Duration : 1h 53mn
Overall bit rate : 4 561 Kbps
Encoded date : UTC 2015-05-28 12:36:02
Writing application : mkvmerge v6.1.0 ('Old Devil') built on Mar 4 2013 09:10:42
Writing library : libebml v1.3.0 + libmatroska v1.4.0
Video
ID : 1
Format : AVC
Format/Info : Advanced Video Codec
Format profile : Main@L3.1
Format settings, CABAC : No
Format settings, ReFrames : 2 frames
Codec ID : V_MPEG4/ISO/AVC
Duration : 1h 53mn
Bit rate : 3 894 Kbps
Width : 1 280 pixels
Height : 528 pixels
Display aspect ratio : 2.40:1
Frame rate : 23.976 fps
Color space : YUV
Chroma subsampling : 4:2:0
Bit depth : 8 bits
Scan type : Progressive
Bits/(Pixel*Frame) : 0.240
Stream size : 3.09 GiB (85%)
Language : English
Default : Yes
Forced : No
Color primaries : BT.709-5, BT.1361, IEC 61966-2-4, SMPTE RP177
Transfer characteristics : BT.709-5, BT.1361
Matrix coefficients : BT.709-5, BT.1361, IEC 61966-2-4 709, SMPTE RP177
Audio #1
ID : 2
Format : AC-3
Format/Info : Audio Coding 3
Mode extension : CM (complete main)
Format settings, Endianness : Big
Codec ID : A_AC3
Duration : 1h 53mn
Bit rate mode : Constant
Bit rate : 192 Kbps
Channel(s) : 2 channels
Channel positions : Front: L R
Sampling rate : 48.0 KHz
Bit depth : 16 bits
Compression mode : Lossy
Stream size : 156 MiB (4%)
Language : Russian
Default : Yes
Forced : No
Audio #2
ID : 3
Format : AC-3
Format/Info : Audio Coding 3
Mode extension : CM (complete main)
Format settings, Endianness : Big
Codec ID : A_AC3
Duration : 1h 53mn
Bit rate mode : Constant
Bit rate : 384 Kbps
Channel(s) : 6 channels
Channel positions : Front: L C R, Side: L R, LFE
Sampling rate : 48.0 KHz
Bit depth : 16 bits
Compression mode : Lossy
Stream size : 313 MiB (8%)
Language : English
Default : No
Forced : No
Text #1
ID : 4
Format : UTF-8
Codec ID : S_TEXT/UTF8
Codec ID/Info : UTF-8 Plain Text
Language : Russian
Default : No
Forced : No
Text #2
ID : 5
Format : UTF-8
Codec ID : S_TEXT/UTF8
Codec ID/Info : UTF-8 Plain Text
Language : English
Default : No
Forced : No
Menu
00:00:00.000 : en:Chapter 01
00:10:04.000 : en:Chapter 02
00:19:36.000 : en:Chapter 03
00:31:20.000 : en:Chapter 04
00:41:30.000 : en:Chapter 05
00:51:47.000 : en:Chapter 06
01:00:10.000 : en:Chapter 07
01:09:14.000 : en:Chapter 08
01:18:31.000 : en:Chapter 09
01:28:19.000 : en:Chapter 10
01:39:33.000 : en:Chapter 11
01:49:31.000 : en:Chapter 12

Скриншоты

[Профиль] [ЛС]
Показать сообщения:    

Текущее время: Сегодня 00:33

Часовой пояс: GMT



Вы не можете начинать темы
Вы не можете отвечать на сообщения
Вы не можете редактировать свои сообщения
Вы не можете удалять свои сообщения
Вы не можете голосовать в опросах
Вы не можете прикреплять файлы к сообщениям
Вы не можете скачивать файлы