Нинкина любовь (Игорь Перин) [2015, Россия, мелодрама, HDTV 1080i] + Original Rus

 
Автор Сообщение

TorrentFilm ®

Пол:

Стаж: 2 года

Сообщений: 7741



Награды: Нет

Торрент-статистика

Создавать темы 04-Сен-2015 00:09

[Цитировать]

Нинкина любовь
Страна: Россия
Жанр: мелодрама
Год выпуска: 2015
Продолжительность: 01:33:53
Перевод: Не требуется
Cубтитры: нет
Оригинальная аудиодорожка: русский
Режиссер: Игорь Перин
В ролях: Люба Баханкова, Илья Алексеев, Илья Соколовский, Людмила Гаврилова, Василий Кортуков, Андрей Булатов
Описание: Нина всю себя посвятила младшей сестре. На собственную любовь и счастье времени не хватило. Жизнь ее скучна и однообразна. Но судьба приготовила на Нинкину долю много приключений и переживаний. Совсем скоро в ее жизни появятся двое мужчин, и далеко не сразу Нина поймет, кто из них ее настоящая любовь…
Сэмпл: http://sendfile.su/1149129

Тип релиза: HDTV 1080i
Контейнер: TS
Видео: AVC/H.264, PAL, 1920x1080 (16:9), 10,5 Мбит/сек, 25.000 fps
Аудио: русский, MP2, 2ch, 48,0 КГц, 192 Кбит/сек

MediaInfo

Общее
Идентификатор : 1 (0x1)
Полное имя : D:\Нинкина любовь.ts
Формат : MPEG-TS
Размер файла : 7,38 Гбайт
Продолжительность : 1 ч. 33 м.
Режим общего битрейта : Переменный
Общий поток : 11,3 Мбит/сек
Видео
Идентификатор : 1311 (0x51F)
Идентификатор меню : 1 (0x1)
Формат : AVC
Формат/Информация : Advanced Video Codec
Профиль формата : Main@L4.0
Параметр CABAC формата : Да
Параметр ReFrames формата : 3 кадра
Идентификатор кодека : 27
Продолжительность : 1 ч. 33 м.
Битрейт : 10,5 Мбит/сек
Ширина : 1920 пикселей
Высота : 1080 пикселей
Соотношение сторон : 16:9
Частота кадров : 25,000 кадров/сек
Стандарт вещания : Component
Цветовое пространство : YUV
Субдискретизация насыщенности : 4:2:0
Битовая глубина : 8 бит
Тип развёртки : Чересстрочная
Порядок развёртки : Верхнее поле первое
Бит/(Пиксели*Кадры) : 0.203
Размер потока : 6,89 Гбайт (93%)
Основные цвета : BT.709
Характеристики трансфера : BT.709
Коэффициенты матрицы : BT.709
colour_range : Limited
Аудио
Идентификатор : 1312 (0x520)
Идентификатор меню : 1 (0x1)
Формат : MPEG Audio
Версия формата : Version 1
Профиль формата : Layer 2
Идентификатор кодека : 3
Продолжительность : 1 ч. 33 м.
Вид битрейта : Постоянный
Битрейт : 192 Кбит/сек
Каналы : 2 канала
Частота : 48,0 КГц
Метод сжатия : С потерями
Размер потока : 129 Мбайт (2%)
Язык : Russian

Скриншот с названием фильма

Скриншоты

[Профиль] [ЛС]
Показать сообщения:    

Текущее время: Сегодня 06:04

Часовой пояс: GMT



Вы не можете начинать темы
Вы не можете отвечать на сообщения
Вы не можете редактировать свои сообщения
Вы не можете удалять свои сообщения
Вы не можете голосовать в опросах
Вы не можете прикреплять файлы к сообщениям
Вы не можете скачивать файлы