Ниндзя-убийца / Ninja Assassin (2009) BDRemux 1080p

 
Автор Сообщение

Russian Mafia ®

Пол:

Стаж: 1 год 8 месяцев

Сообщений: 4246



Награды: 10 (Подробнее)

Top Releaser 4 (Количество: 1) Top Releaser 3 (Количество: 1) Mega Seeder 5 (Количество: 1)
Торрент-статистика

Создавать темы 09-Сен-2015 09:30

[Цитировать]

Страна: США
Жанр: боевик, триллер
Год выпуска: 2009
Продолжительность: 01:38:40
Перевод: Профессиональный (полное дублирование), Оригинал, Авторский (одноголосый, закадровый) Сергей Визгунов, Авторский (одноголосый, закадровый) Михаил Чадов
Субтитры: Русские, Английские - полные
Режиссёр: Джеймс МакТиг
В ролях: Санг Кенг, Рэндолл Дак Ким, Джонатан Чан-Пинсли, Юки Ивамото, Илл-Юнг Ким, Бен Майлз, Наоми Харрис, Рэйн, Стивен Маркус, Лин Дэн Пэм
Описание: Рейзо — один из самых опасных убийц-ниндзя в мире. Еще ребенком его превратили в профессионального убийцу члены клана «Озуну» — секретной организации, чье существование до сих пор считалось выдумкой. Рейзо, преследуемый муками совести из-за беспощадного убийства своего друга кланом Озуну, сбегает от своих. Но тайные кланы не отпускают «своих» просто так…

Ограничение по возрасту: 18+
бюджет: $40 000 000
сборы в США: $38 122 883
сборы в мире: + $23 467 369 = $61 590 252
сборы в России: $1 290 862
Качество: BDRemux 1080p
Формат файла: MKV
Видео кодек: VC-1
Аудио кодек: AC3 / DTS
Видео: 1920x1080 (16:9); 23,976 fps
Аудио №1: Russian; AC3; 640 Kbps; CBR; 6 ch - Профессиональный (полное дублирование)
Аудио №2: Английский; DTS-HD; VBR; 6 ch; 24 bit - Оригинал
Аудио №3: Russian; AC3; 448 Kbps; CBR; 6 ch - Авторский (одноголосый, закадровый) Сергей Визгунов
Аудио №4: Russian; AC3; 448 Kbps; CBR; 6 ch - Авторский (одноголосый, закадровый) Михаил Чадов

MI:

Общее
Уникальный идентификатор : 221726984856458063180161896433557740282 (0xA6CF105FC5CCDF2AB01BCE521A4C9AFA)
Полное имя : C:UsersDimazDesktopNinja.Assassin.2009.Torrentirk.ru.mkv
Формат : Matroska
Версия формата : Version 4 / Version 2
Размер файла : 16,2 Гбайт
Продолжительность : 1 ч. 38 м.
Режим общего битрейта : Переменный
Общий поток : 23,5 Мбит/сек
Название фильма : Ninja Assassin by TorrentIRK.ru
Дата кодирования : UTC 2013-03-12 02:55:38
Программа кодирования : mkvmerge v6.1.0 ('Old Devil') built on Mar 2 2013 14:32:37
Библиотека кодирования : libebml v1.3.0 + libmatroska v1.4.0
Видео
Идентификатор : 1
Формат : VC-1
Профиль формата : Advanced@L3
Идентификатор кодека : V_MS/VFW/FOURCC / WVC1
Идентификатор кодека/Подсказка : Microsoft
Продолжительность : 1 ч. 38 м.
Ширина : 1920 пикселей
Высота : 1080 пикселей
Соотношение сторон : 16:9
Режим частоты кадров : Постоянный
Частота кадров : 23,976 кадра/сек
Субдискретизация насыщенности : 4:2:0
Битовая глубина : 8 бит
Тип развёртки : Прогрессивная
Метод сжатия : С потерями
Заголовок : Ninja Assassin by TorrentIRK.ru
Default : Да
Forced : Нет
Аудио #1
Идентификатор : 2
Формат : AC-3
Формат/Информация : Audio Coding 3
Расширение режима : CM (complete main)
Параметр Endianness формата : Big
Идентификатор кодека : A_AC3
Продолжительность : 1 ч. 38 м.
Вид битрейта : Постоянный
Битрейт : 640 Кбит/сек
Каналы : 6 каналов
Расположение каналов : Front: L C R, Side: L R, LFE
Частота : 48,0 КГц
Битовая глубина : 16 бит
Метод сжатия : С потерями
Размер потока : 452 Мбайт (3%)
Заголовок : Русский Dolby Digital 5.1 / 48 kHz / 640 kbps - Дубляж
Язык : Russian
Default : Да
Forced : Нет
Аудио #2
Идентификатор : 3
Формат : DTS
Формат/Информация : Digital Theater Systems
Профиль формата : MA / Core
Режим : 16
Параметр Endianness формата : Big
Идентификатор кодека : A_DTS
Продолжительность : 1 ч. 38 м.
Вид битрейта : Переменный
Битрейт : Неизвестно / 1509 Кбит/сек
Каналы : 6 каналов
Расположение каналов : Front: L C R, Side: L R, LFE
Частота : 48,0 КГц
Битовая глубина : 24 бит
Метод сжатия : Без потерь / Lossy
Заголовок : Английский DTS-HD Master 5.1 / 48 kHz / 3905 kbps / 24-bit (DTS Core: 5.1 / 48 kHz / 1509 kbps / 24-bit)
Язык : English
Default : Нет
Forced : Нет
Аудио #3
Идентификатор : 6
Формат : AC-3
Формат/Информация : Audio Coding 3
Расширение режима : CM (complete main)
Параметр Endianness формата : Big
Идентификатор кодека : A_AC3
Продолжительность : 1 ч. 38 м.
Вид битрейта : Постоянный
Битрейт : 448 Кбит/сек
Каналы : 6 каналов
Расположение каналов : Front: L C R, Side: L R, LFE
Частота : 48,0 КГц
Битовая глубина : 16 бит
Метод сжатия : С потерями
Задержка видео : -42 мс.
Размер потока : 316 Мбайт (2%)
Заголовок : AC3, CBR, 48 kHz, 6ch, 384 kbps - Авторский (одноголосый) Михаил Чадов
Язык : Russian
Default : Нет
Forced : Нет
Аудио #4
Идентификатор : 7
Формат : AC-3
Формат/Информация : Audio Coding 3
Расширение режима : CM (complete main)
Параметр Endianness формата : Big
Идентификатор кодека : A_AC3
Продолжительность : 1 ч. 38 м.
Вид битрейта : Постоянный
Битрейт : 448 Кбит/сек
Каналы : 6 каналов
Расположение каналов : Front: L C R, Side: L R, LFE
Частота : 48,0 КГц
Битовая глубина : 16 бит
Метод сжатия : С потерями
Задержка видео : -42 мс.
Размер потока : 316 Мбайт (2%)
Заголовок : Dolby AC3, 48 kHz, 6 ch, 448Kbps - Авторский (одноголосый, закадровый) Михаил Чадов
Язык : Russian
Default : Нет
Forced : Нет
Текст #1
Идентификатор : 4
Формат : PGS
Режим смешивания : zlib
Идентификатор кодека : S_HDMV/PGS
Идентификатор кодека/Информация : The same subtitle format used on BDs/HD-DVDs
Заголовок : Русские
Язык : Russian
Default : Да
Forced : Нет
Текст #2
Идентификатор : 5
Формат : PGS
Режим смешивания : zlib
Идентификатор кодека : S_HDMV/PGS
Идентификатор кодека/Информация : The same subtitle format used on BDs/HD-DVDs
Заголовок : Английские
Язык : English
Default : Нет
Forced : Нет

Скриншоты:

[Профиль] [ЛС]
Показать сообщения:    

Текущее время: Сегодня 02:36

Часовой пояс: GMT



Вы не можете начинать темы
Вы не можете отвечать на сообщения
Вы не можете редактировать свои сообщения
Вы не можете удалять свои сообщения
Вы не можете голосовать в опросах
Вы не можете прикреплять файлы к сообщениям
Вы не можете скачивать файлы