Никсон / Nixon (1995) BDRip-AVC от MediaClub | P, A | Расширенная версия

 
Автор Сообщение

sergej644 ®

Пол:

Стаж: 4 года 11 месяцев

Сообщений: 6045

Откуда: Soviet Union



Награды: Нет

Торрент-статистика

Создавать темы 27-Ноя-2014 22:35

[Цитировать]

Информация о фильме
Название: Никсон
Оригинальное название: Nixon
Год выпуска: 1995
Жанр: Драма, биография
Режиссер: Оливер Стоун
В ролях: Энтони Хопкинс, Джоан Аллен, Пауэрс Бут, Эд Харрис, Боб Хоскинс, И. Дж. Маршалл, Дэвид Пэймер, Дэвид Хайд Пирс, Пол Сорвино, Мэри Стинберген, Дж. Т. Уолш, Джеймс Вудс, Брайан Бедфорд, Кевин Данн, Эд Херрманн, Джон Каннингэм, Дэвид Бэрри Грэй, Джон С. МакГинли, Сол Рубинек, Джон Диль, Роберт Белтран, Тони Плана, Ларри Хэгман, Дэн Хедайя, Джордж Плимптон, Майкл Чиклис, Джоэнна Гоуинг, Джеймс Пикенс мл., Мэдлин Кан, Энтони Ло Бьянко, Тони Голдуин
О фильме: История Ричарда Никсона, бывшего президента Соединенных Штатов, президентский срок которого закончился с позором. Он стал единственным американским президентом, который сложил свои полномочия, чтобы избежать импичмента.

Страна: США
Студия: Cinergi Pictures Entertainment, Hollywood Pictures, Illusion Entertainment
Продолжительность: 03:32:14
Перевод: Профессиональный многоголосый, авторский одноголосый
Файл
Кодек: x264
Качество: BDRip-AVC
Видео: MPEG-4 AVC, 2010 Кбит/с, 1024x426, 23.976 кадр/с
Аудио #1: Русский (AC3, 2 ch, 192 Кбит/с) / Профессиональный многоголосый (Первый канал)
Аудио #2: Русский (AC3, 2 ch, 192 Кбит/с) / Авторский одноголосый (Андрей Гаврилов)
Аудио #3: Русский (AC3, 6 ch, 448 Кбит/с) / Авторский одноголосый (Юрий Немахов)
Аудио #4: Английский (AC3, 6 ch, 448 Кбит/с)
Субтитры: Английские
Семпл

MI

x264 [info]: frame I:2450 Avg QP:16.03 size: 52483
x264 [info]: frame P:62852 Avg QP:18.94 size: 20484
x264 [info]: frame B:240016 Avg QP:20.73 size: 7431
=================================
Уникальный идентификатор : 222547719614497297339121243964468348176 (0xA76D21B8CCA7538FB6EC5FC5FB57C510)
Полное имя : E:MCNikson.1995.x264.BDRip(AVC)-MediaClubNikson.1995.x264.BDRip(AVC)-MediaClub.mkv
Формат : Matroska
Версия формата : Version 4 / Version 2
Размер файла : 4,88 Гбайт
Продолжительность : 3 ч. 32 м.
Общий поток : 3293 Кбит/сек
Название фильма : -= Release MediaClub =-
Дата кодирования : UTC 2014-11-26 19:33:53
Программа кодирования : mkvmerge v7.3.0 ('Nouages') 64bit built on Oct 22 2014 18:53:34
Библиотека кодирования : libebml v1.3.0 + libmatroska v1.4.1
DURATION : 03:32:14.336000000
NUMBER_OF_FRAMES : 397948
NUMBER_OF_BYTES : 713122816
_STATISTICS_WRITING_APP : mkvmerge v7.3.0 ('Nouages') 64bit built on Oct 22 2014 18:53:34
_STATISTICS_WRITING_DATE_UTC : 2014-11-26 19:33:53
_STATISTICS_TAGS : BPS DURATION NUMBER_OF_FRAMES NUMBER_OF_BYTES
Attachment : Yes
Видео
Идентификатор : 1
Формат : AVC
Формат/Информация : Advanced Video Codec
Профиль формата : High@L4.1
Параметр CABAC формата : Да
Параметр ReFrames формата : 12 кадров
Идентификатор кодека : V_MPEG4/ISO/AVC
Продолжительность : 3 ч. 32 м.
Битрейт : 2010 Кбит/сек
Ширина : 1024 пикселя
Высота : 426 пикселей
Соотношение сторон : 2,40:1
Режим частоты кадров : Постоянный
Частота кадров : 23,976 кадра/сек
Цветовое пространство : YUV
Субдискретизация насыщенности : 4:2:0
Битовая глубина : 8 бит
Тип развёртки : Прогрессивная
Бит/(Пиксели*Кадры) : 0.192
Размер потока : 2,89 Гбайт (59%)
Заголовок : Nikson.1995.x264.BDRip(AVC)-neni
Библиотека кодирования : x264 core 142 r2409+42 04be48a tMod [8-bit@4:2:0 X86_64]
Настройки программы : cabac=1 / ref=12 / deblock=1:-3:-3 / analyse=0x3:0x133 / me=umh / subme=11 / psy=1 / fade_compensate=0.00 / psy_rd=1.00:0.20 / mixed_ref=1 / me_range=48 / chroma_me=1 / trellis=2 / 8x8dct=1 / cqm=0 / deadzone=21,11 / fast_pskip=0 / chroma_qp_offset=-3 / threads=9 / lookahead_threads=2 / sliced_threads=0 / nr=0 / decimate=0 / interlaced=0 / bluray_compat=0 / constrained_intra=0 / fgo=0 / bframes=10 / b_pyramid=2 / b_adapt=2 / b_bias=0 / direct=3 / weightb=1 / open_gop=0 / weightp=2 / keyint=240 / keyint_min=23 / scenecut=40 / intra_refresh=0 / rc=2pass / mbtree=0 / bitrate=2010 / ratetol=1.0 / qcomp=0.60 / qpmin=0:0:0 / qpmax=69:69:69 / qpstep=4 / cplxblur=20.0 / qblur=0.5 / ip_ratio=1.40 / pb_ratio=1.30 / aq=2:1.00 / aq-sensitivity=10.00 / aq-factor=1.00:1.00:1.00 / aq2=0 / aq3=0
Язык : English
Default : Да
Forced : Нет
DURATION : 03:32:14.305000000
NUMBER_OF_FRAMES : 305318
NUMBER_OF_BYTES : 3199619439
_STATISTICS_WRITING_APP : mkvmerge v7.3.0 ('Nouages') 64bit built on Oct 22 2014 18:53:34
_STATISTICS_WRITING_DATE_UTC : 2014-11-26 19:33:53
_STATISTICS_TAGS : BPS DURATION NUMBER_OF_FRAMES NUMBER_OF_BYTES
Аудио #1
Идентификатор : 2
Формат : AC-3
Формат/Информация : Audio Coding 3
Расширение режима : CM (complete main)
Параметр Endianness формата : Big
Идентификатор кодека : A_AC3
Продолжительность : 3 ч. 32 м.
Вид битрейта : Постоянный
Битрейт : 192 Кбит/сек
Каналы : 2 канала
Расположение каналов : Front: L R
Частота : 48,0 КГц
Битовая глубина : 16 бит
Метод сжатия : С потерями
Размер потока : 291 Мбайт (6%)
Заголовок : • Русский (AC3, 2 ch, 192 Кбит/с) - ПМ (Первый канал)
Язык : Russian
Default : Да
Forced : Нет
Аудио #2
Идентификатор : 3
Формат : AC-3
Формат/Информация : Audio Coding 3
Расширение режима : CM (complete main)
Параметр Endianness формата : Big
Идентификатор кодека : A_AC3
Продолжительность : 3 ч. 32 м.
Вид битрейта : Постоянный
Битрейт : 192 Кбит/сек
Каналы : 2 канала
Расположение каналов : Front: L R
Частота : 48,0 КГц
Битовая глубина : 16 бит
Метод сжатия : С потерями
Размер потока : 291 Мбайт (6%)
Заголовок : • Русский (AC3, 2 ch, 192 Кбит/с) - АП (Андрей Гаврилов)
Язык : Russian
Default : Нет
Forced : Нет
Аудио #3
Идентификатор : 4
Формат : AC-3
Формат/Информация : Audio Coding 3
Расширение режима : CM (complete main)
Параметр Endianness формата : Big
Идентификатор кодека : A_AC3
Продолжительность : 3 ч. 32 м.
Вид битрейта : Постоянный
Битрейт : 448 Кбит/сек
Каналы : 6 каналов
Расположение каналов : Front: L C R, Side: L R, LFE
Частота : 48,0 КГц
Битовая глубина : 16 бит
Метод сжатия : С потерями
Размер потока : 680 Мбайт (14%)
Заголовок : • Русский (AC3, 6 ch, 448 Кбит/с) - АП (Юрий Немахов)
Язык : Russian
Default : Нет
Forced : Нет
Аудио #4
Идентификатор : 5
Формат : AC-3
Формат/Информация : Audio Coding 3
Расширение режима : CM (complete main)
Параметр Endianness формата : Big
Идентификатор кодека : A_AC3
Продолжительность : 3 ч. 32 м.
Вид битрейта : Постоянный
Битрейт : 448 Кбит/сек
Каналы : 6 каналов
Расположение каналов : Front: L C R, Side: L R, LFE
Частота : 48,0 КГц
Битовая глубина : 16 бит
Метод сжатия : С потерями
Размер потока : 680 Мбайт (14%)
Заголовок : • Английский (AC3, 6 ch, 448 Кбит/с) - (Original from BD)
Язык : English
Default : Нет
Forced : Нет
Текст
Идентификатор : 6
Формат : UTF-8
Идентификатор кодека : S_TEXT/UTF8
Идентификатор кодека/Информация : UTF-8 Plain Text
Заголовок : SRT
Язык : English
Default : Нет
Forced : Нет
Меню
00:00:00.000 : en:Opening Credits
00:06:07.367 : en:No Pistol
00:08:55.577 : en:White House Involvement
00:16:16.893 : en:Stolen Fair and Square
00:21:10.561 : en:Pat and Dick: on Losing
00:27:05.165 : en:A Little Man
00:30:21.903 : en:Marriage on the Rocks
00:37:06.182 : en:Last Press Conference
00:46:14.313 : en:Much in Demand
00:52:11.128 : en:A Terrible Loss
00:57:28.111 : en:The Old Nixon Charm
01:03:56.666 : en:At the Races
01:14:29.840 : en:Harold's Death
01:22:24.982 : en:Bold Moves
01:26:57.045 : en:Nudging History
01:32:04.936 : en:Just Kids
01:33:26.017 : en:Meeting with Helms
01:44:09.660 : en:Nightcap
01:46:09.071 : en:The Beast
01:52:52.140 : en:Nixon and Hoover / The Wedding
01:57:56.319 : en:No More Mr. Nice Guy
02:02:37.600 : en:Meet Mr. Liddy
02:03:28.443 : en:Playing for Keeps
02:10:36.954 : en:The Enemy of the Enemy
02:15:48.599 : en:Texas Strong-Arms
02:25:43.652 : en:Playing with Power
02:29:33.840 : en:Getting Personal
02:38:25.037 : en:An Hors D'Oeuvre
02:43:26.422 : en:Whitewash
02:45:11.902 : en:No Discussion
02:53:25.729 : en:Drunken Words
02:59:31.135 : en:No Tears
03:08:25.377 : en:Smoking Gun
03:13:30.599 : en:A Prayer
03:18:48.917 : en:In the Dark
03:21:32.080 : en:Closing Remarks / End Credits

Скриншоты


Релиз от: Rip by
[Профиль] [ЛС]

Создавать темы 06-Авг-2015 22:56 (спустя 8 месяцев 10 дней)

Топик был перенесен из форума Фильмы до 2014 года в форум Фильмы до 2012 года
sergej644
 
Показать сообщения:    

Текущее время: Сегодня 06:02

Часовой пояс: GMT



Вы не можете начинать темы
Вы не можете отвечать на сообщения
Вы не можете редактировать свои сообщения
Вы не можете удалять свои сообщения
Вы не можете голосовать в опросах
Вы не можете прикреплять файлы к сообщениям
Вы не можете скачивать файлы