Нико и Никора (Григорий Чмутов, Аркадий Хинтибидзе) [1954, рисованный мультфильм, TVRip]

 
Автор Сообщение

TorrentFilm ®

Пол:

Стаж: 2 года

Сообщений: 7741



Награды: Нет

Торрент-статистика

Создавать темы 04-Июн-2015 00:04

[Цитировать]

Нико и Никора
Страна: СССР
Производство: Грузия-фильм
Жанр: рисованный мультфильм
Продолжительность: 00:17:41
Год выпуска: 1954
Русские субтитры: нет
Режиссёр: Григорий Чмутов, Аркадий Хинтибидзе
Описание: На поле мирно трудятся мальчик Нико и бык Никора. После тяжёлой работы они располагаются на отдых. Неожиданно на них нападает злой и прожорливый великан Дэв. Он хватает Нико и уносит к себе. Никора отправляется на поиски Нико.
Кинопоиск
Качество: TVRip
Формат: AVI
Видео: 640x480 (1.33:1), 25 fps, XviD MPEG-4 ~1603 kbps avg, 0.209 bit/pixel
Аудио: 44.1 kHz, MPEG Layer 3, 1 ch, ~96.00 kbps avg
Субтитры: Отсутствуют

Подробные технические данные

GeneralComplete name : E:\1\мультики\Нико и Никора 1954.aviFormat : AVIFormat/Info : Audio Video InterleaveFile size : 216 MiBDuration : 17mn 41sOverall bit rate : 1 709 KbpsWriting library : VirtualDub build 35512/release
VideoID : 0Format : MPEG-4 VisualFormat profile : Advanced Simple@L5Format settings, BVOP : 2Format settings, QPel : NoFormat settings, GMC : No warppointsFormat settings, Matrix : Default (H.263)Codec ID : XVIDCodec ID/Hint : XviDDuration : 17mn 41sBit rate : 1 603 KbpsWidth : 640 pixelsHeight : 480 pixelsDisplay aspect ratio : 4:3Frame rate : 25.000 fpsColor space : YUVChroma subsampling : 4:2:0Bit depth : 8 bitsScan type : ProgressiveCompression mode : LossyBits/(Pixel*Frame) : 0.209Stream size : 203 MiB (94%)Writing library : XviD 73
AudioID : 1Format : MPEG AudioFormat version : Version 1Format profile : Layer 3Codec ID : 55Codec ID/Hint : MP3Duration : 17mn 41sBit rate mode : ConstantBit rate : 96.0 KbpsChannel count : 1 channelSampling rate : 44.1 KHzCompression mode : LossyStream size : 12.1 MiB (6%)Alignment : Split accross interleavesInterleave, duration : 40 ms (1.00 video frame)Interleave, preload duration : 500 ms

Скриншоты

[Профиль] [ЛС]
Кто просматривает тему:

Показать сообщения:    

Текущее время: Сегодня 14:57

Часовой пояс: GMT



Вы не можете начинать темы
Вы не можете отвечать на сообщения
Вы не можете редактировать свои сообщения
Вы не можете удалять свои сообщения
Вы не можете голосовать в опросах
Вы не можете прикреплять файлы к сообщениям
Вы не можете скачивать файлы