(Author's Song) Никольский Константин - Музыкант (Лучшие песни) (2CD) - 2015 [FLAC, image+.cue, lossless]

 
Автор Сообщение

sergej644 ®

Пол:

Стаж: 4 года 11 месяцев

Сообщений: 6035

Откуда: Soviet Union



Награды: Нет

Торрент-статистика

Создавать темы 29-Июл-2015 05:20

[Цитировать]

-Никольский Константин / Музыкант (Лучшие песни) (2CD)-- Год издания: 2015
Страна: Russia
Жанр: Author's Song
Продолжительность: 02:14:30-Лейбл издания: Студия "Союз"
Тип альбома: Compilation
Страна-выпуска диска: Russia
Номер по каталогу: SZCD - 6622-15
Формат: FLAC
Битрейт аудио: lossless
Тип рипа: image+.cue
Наличие сканов в содержимом раздачи: да
-

Трэклист

CD 1 | 01:18:10

01.Intro (00:53)
02.Музыкант (05:22)
03.Один взгляд назад (03:44)
04.Птицы белые мои (04:44)
05.Когда поймешь умом... (02:59)
06.В моей душе осадок зла (04:53)
07.Мой друг художник и поэт (06:11)
08.Зеркало мира (05:13)
09.Спи, душа моя (04:42)
10.Ночная птица (04:25)
11.От любви к любви (05:35)
12.Растаяла дымка сквозная (06:02)
13.Я сам из тех... (04:00)
14.Прошедший день (05:16)
15.Я бреду по бездорожью (05:47)
16.Не уходи, мой друг (08:31)

CD 2 | 00:56:20

01.Intro (01:00)
02.Мой друг художник и поэт (03:32)
03.Я сам из тех… (03:16)
04.Опять до времени отложены дела (03:04)
05.Облако (02:09)
06.Прошедший день (03:01)
07.Когда поймёшь умом… (03:13)
08.Перед чертой меж будущим и прошлым (03:03)
09.Цветок у окна (02:51)
10.Один взгляд назад (Ветерок) (03:08)
11.Музыкант (04:43)
12.В моей душе осадок зла (04:13)
13.Голос (03:26)
14.От любви к любви (03:56)
15.Я бреду по бездорожью (03:07)
16.Птицы белые мои (04:00)
17.Ночная птица (04:47)

Лог создания рипа

CD 1

Exact Audio Copy V1.0 beta 3 from 29. August 2011
Отчёт EAC об извлечении, выполненном 28. июля 2015, 17:13
Константин Никольский / Музыкант. Лучшие песни (CD1)
Дисковод: Optiarc DVD RW AD-7203S   Adapter: 0  ID: 0
Режим чтения                 : Достоверность
Использование точного потока : Да
Отключение кэша аудио        : Да
Использование указателей C2  : Нет
Коррекция смещения при чтении                     : 48
Способность читать области Lead-in и Lead-out     : Нет
Заполнение пропущенных сэмплов тишиной            : Да
Удаление блоков с тишиной в начале и конце        : Нет
При вычислениях CRC использовались нулевые сэмплы : Да
Интерфейс                                         : Встроенный Win32-интерфейс для Win NT/2000
Выходной формат          : Пользовательский кодировщик
Выбранный битрейт        : 1024 kBit/s
Качество                 : Высокий
Добавление ID3-тега      : Нет
Утилита сжатия           : C:\Program Files (x86)\FLAC\flac.exe
Дополнительные параметры : -V -8 -T "Date=%year%" -T "Genre=%genre%" %source%
TOC извлечённого CD
     Трек |   Старт  | Длительность | Начальный сектор | Конечный сектор
    ---------------------------------------------------------------------
       1  |  0:00.00 |    0:52.36   |           0      |       3935
       2  |  0:52.36 |    5:21.33   |        3936      |      28043
       3  |  6:13.69 |    3:43.17   |       28044      |      44785
       4  |  9:57.11 |    4:43.64   |       44786      |      66074
       5  | 14:41.00 |    2:58.29   |       66075      |      79453
       6  | 17:39.29 |    4:52.44   |       79454      |     101397
       7  | 22:31.73 |    6:10.16   |      101398      |     129163
       8  | 28:42.14 |    5:12.30   |      129164      |     152593
       9  | 33:54.44 |    4:41.71   |      152594      |     173739
      10  | 38:36.40 |    4:24.15   |      173740      |     193554
      11  | 43:00.55 |    5:34.43   |      193555      |     218647
      12  | 48:35.23 |    6:01.51   |      218648      |     245773
      13  | 54:36.74 |    3:59.42   |      245774      |     263740
      14  | 58:36.41 |    5:15.64   |      263741      |     287429
      15  | 63:52.30 |    5:46.70   |      287430      |     313449
      16  | 69:39.25 |    8:30.40   |      313450      |     351739
Характеристики диапазона извлечения и сообщения об ошибках
Выбранный диапазон
     Имя файла D:\cdRip\Константин Никольский - Музыкант. Лучшие песни (CD1).wav
     Пиковый уровень 100.0 %
     Скорость извлечения 4.6 X
     Качество диапазона 100.0 %
     CRC теста 7B56BBBE
     CRC копии 7B56BBBE
     Копирование... OK
Ошибок не произошло
AccurateRip: сводка
Трек  1  : извлечено точно (доверие 1)  [6BACB98C]  (AR v2)
Трек  2  : извлечено точно (доверие 1)  [884A8BEB]  (AR v2)
Трек  3  : извлечено точно (доверие 1)  [EE228AB0]  (AR v2)
Трек  4  : извлечено точно (доверие 1)  [360B1F44]  (AR v2)
Трек  5  : извлечено точно (доверие 1)  [DF029B7A]  (AR v2)
Трек  6  : извлечено точно (доверие 1)  [78AACEDA]  (AR v2)
Трек  7  : извлечено точно (доверие 1)  [58BC9322]  (AR v2)
Трек  8  : извлечено точно (доверие 1)  [890068F9]  (AR v2)
Трек  9  : извлечено точно (доверие 1)  [69FD31B4]  (AR v2)
Трек 10  : извлечено точно (доверие 1)  [67B660A9]  (AR v2)
Трек 11  : извлечено точно (доверие 1)  [3A8F56E9]  (AR v2)
Трек 12  : извлечено точно (доверие 1)  [8872006D]  (AR v2)
Трек 13  : извлечено точно (доверие 1)  [AF87BC2F]  (AR v2)
Трек 14  : извлечено точно (доверие 1)  [AF8FD465]  (AR v2)
Трек 15  : извлечено точно (доверие 1)  [718D42E7]  (AR v2)
Трек 16  : извлечено точно (доверие 1)  [D2062F20]  (AR v2)
Все треки извлечены точно
Конец отчёта

CD 2

Exact Audio Copy V1.0 beta 3 from 29. August 2011
Отчёт EAC об извлечении, выполненном 28. июля 2015, 17:45
Константин Никольский / Музыкант. Лучшие песни (CD2)
Дисковод: Optiarc DVD RW AD-7203S   Adapter: 0  ID: 0
Режим чтения                 : Достоверность
Использование точного потока : Да
Отключение кэша аудио        : Да
Использование указателей C2  : Нет
Коррекция смещения при чтении                     : 48
Способность читать области Lead-in и Lead-out     : Нет
Заполнение пропущенных сэмплов тишиной            : Да
Удаление блоков с тишиной в начале и конце        : Нет
При вычислениях CRC использовались нулевые сэмплы : Да
Интерфейс                                         : Встроенный Win32-интерфейс для Win NT/2000
Выходной формат          : Пользовательский кодировщик
Выбранный битрейт        : 1024 kBit/s
Качество                 : Высокий
Добавление ID3-тега      : Нет
Утилита сжатия           : C:\Program Files (x86)\FLAC\flac.exe
Дополнительные параметры : -V -8 -T "Date=%year%" -T "Genre=%genre%" %source%
TOC извлечённого CD
     Трек |   Старт  | Длительность | Начальный сектор | Конечный сектор
    ---------------------------------------------------------------------
       1  |  0:00.00 |    0:59.08   |           0      |       4432
       2  |  0:59.08 |    3:31.42   |        4433      |      20299
       3  |  4:30.50 |    3:15.63   |       20300      |      34987
       4  |  7:46.38 |    3:03.25   |       34988      |      48737
       5  | 10:49.63 |    2:08.67   |       48738      |      58404
       6  | 12:58.55 |    3:00.20   |       58405      |      71924
       7  | 15:59.00 |    3:12.65   |       71925      |      86389
       8  | 19:11.65 |    3:02.38   |       86390      |     100077
       9  | 22:14.28 |    2:50.42   |      100078      |     112869
      10  | 25:04.70 |    3:07.30   |      112870      |     126924
      11  | 28:12.25 |    4:42.50   |      126925      |     148124
      12  | 32:55.00 |    4:12.65   |      148125      |     167089
      13  | 37:07.65 |    3:25.08   |      167090      |     182472
      14  | 40:32.73 |    3:55.30   |      182473      |     200127
      15  | 44:28.28 |    3:06.10   |      200128      |     214087
      16  | 47:34.38 |    3:59.32   |      214088      |     232044
      17  | 51:33.70 |    4:46.03   |      232045      |     253497
Характеристики диапазона извлечения и сообщения об ошибках
Выбранный диапазон
     Имя файла D:\cdRip\Константин Никольский - Музыкант. Лучшие песни (CD2).wav
     Пиковый уровень 68.2 %
     Скорость извлечения 4.1 X
     Качество диапазона 100.0 %
     CRC теста 14A8E565
     CRC копии 14A8E565
     Копирование... OK
Ошибок не произошло
AccurateRip: сводка
Трек  1  : извлечено точно (доверие 1)  [EEB8DE4B]  (AR v2)
Трек  2  : извлечено точно (доверие 1)  [AC2105D1]  (AR v2)
Трек  3  : извлечено точно (доверие 1)  [910A3118]  (AR v2)
Трек  4  : извлечено точно (доверие 1)  [B51D4C8E]  (AR v2)
Трек  5  : извлечено точно (доверие 1)  [89D0DC54]  (AR v2)
Трек  6  : извлечено точно (доверие 1)  [48935F18]  (AR v2)
Трек  7  : извлечено точно (доверие 1)  [8056BCDA]  (AR v2)
Трек  8  : извлечено точно (доверие 1)  [7CE6BC66]  (AR v2)
Трек  9  : извлечено точно (доверие 1)  [2CD4216C]  (AR v2)
Трек 10  : извлечено точно (доверие 1)  [1E4520A6]  (AR v2)
Трек 11  : извлечено точно (доверие 1)  [EA558321]  (AR v2)
Трек 12  : извлечено точно (доверие 1)  [EA077185]  (AR v2)
Трек 13  : извлечено точно (доверие 1)  [E90B921F]  (AR v2)
Трек 14  : извлечено точно (доверие 1)  [320072E4]  (AR v2)
Трек 15  : извлечено точно (доверие 1)  [453D3DB1]  (AR v2)
Трек 16  : извлечено точно (доверие 1)  [A4BBB1B0]  (AR v2)
Трек 17  точность не определена (достоверность 1)  [CFED92D9], AccurateRip вернул [11E67845]  (AR v2)
16 трек(и) скопированы точно
1 трек(и) не удалось проверить на точность
Некоторые треки не прошли проверку на точность
Конец отчёта

Индексная карта (non-compilant .cue)

CD 1

REM GENRE Rock
REM DATE 2015
REM DISCID E8125110
REM COMMENT "ExactAudioCopy v1.0b3"
PERFORMER "Константин Никольский"
TITLE "Музыкант. Лучшие песни (CD1)"
FILE "Константин Никольский - Музыкант. Лучшие песни (CD1).flac" WAVE
  TRACK 01 AUDIO
    TITLE "Intro"
    PERFORMER "Константин Никольский"
    INDEX 01 00:00:00
  TRACK 02 AUDIO
    TITLE "Музыкант"
    PERFORMER "Константин Никольский"
    INDEX 01 00:52:36
  TRACK 03 AUDIO
    TITLE "Один взгляд назад"
    PERFORMER "Константин Никольский"
    INDEX 01 06:13:69
  TRACK 04 AUDIO
    TITLE "Птицы белые мои"
    PERFORMER "Константин Никольский"
    INDEX 01 09:57:11
  TRACK 05 AUDIO
    TITLE "Когда поймешь умом..."
    PERFORMER "Константин Никольский"
    INDEX 01 14:41:00
  TRACK 06 AUDIO
    TITLE "В моей душе осадок зла"
    PERFORMER "Константин Никольский"
    INDEX 01 17:39:29
  TRACK 07 AUDIO
    TITLE "Мой друг художник и поэт"
    PERFORMER "Константин Никольский"
    INDEX 01 22:31:73
  TRACK 08 AUDIO
    TITLE "Зеркало мира"
    PERFORMER "Константин Никольский"
    INDEX 01 28:42:14
  TRACK 09 AUDIO
    TITLE "Спи, душа моя"
    PERFORMER "Константин Никольский"
    INDEX 01 33:54:44
  TRACK 10 AUDIO
    TITLE "Ночная птица"
    PERFORMER "Константин Никольский"
    INDEX 01 38:36:40
  TRACK 11 AUDIO
    TITLE "От любви к любви"
    PERFORMER "Константин Никольский"
    INDEX 01 43:00:55
  TRACK 12 AUDIO
    TITLE "Растаяла дымка сквозная"
    PERFORMER "Константин Никольский"
    INDEX 01 48:35:23
  TRACK 13 AUDIO
    TITLE "Я сам из тех..."
    PERFORMER "Константин Никольский"
    INDEX 01 54:36:74
  TRACK 14 AUDIO
    TITLE "Прошедший день"
    PERFORMER "Константин Никольский"
    INDEX 01 58:36:41
  TRACK 15 AUDIO
    TITLE "Я бреду по бездорожью"
    PERFORMER "Константин Никольский"
    INDEX 01 63:52:30
  TRACK 16 AUDIO
    TITLE "Не уходи, мой друг"
    PERFORMER "Константин Никольский"
    INDEX 01 69:39:25

CD 2

REM GENRE Rock
REM DATE 2015
REM DISCID F10D3311
REM COMMENT "ExactAudioCopy v1.0b3"
PERFORMER "Константин Никольский"
TITLE "Музыкант. Лучшие песни (CD2)"
FILE "Константин Никольский - Музыкант. Лучшие песни (CD2).flac" WAVE
  TRACK 01 AUDIO
    TITLE "Intro"
    PERFORMER "Константин Никольский"
    INDEX 01 00:00:00
  TRACK 02 AUDIO
    TITLE "Мой друг художник и поэт"
    PERFORMER "Константин Никольский"
    INDEX 01 00:59:08
  TRACK 03 AUDIO
    TITLE "Я сам из тех…"
    PERFORMER "Константин Никольский"
    INDEX 01 04:30:50
  TRACK 04 AUDIO
    TITLE "Опять до времени отложены дела"
    PERFORMER "Константин Никольский"
    INDEX 01 07:46:38
  TRACK 05 AUDIO
    TITLE "Облако"
    PERFORMER "Константин Никольский"
    INDEX 01 10:49:63
  TRACK 06 AUDIO
    TITLE "Прошедший день"
    PERFORMER "Константин Никольский"
    INDEX 01 12:58:55
  TRACK 07 AUDIO
    TITLE "Когда поймёшь умом…"
    PERFORMER "Константин Никольский"
    INDEX 01 15:59:00
  TRACK 08 AUDIO
    TITLE "Перед чертой меж будущим и прошлым"
    PERFORMER "Константин Никольский"
    INDEX 01 19:11:65
  TRACK 09 AUDIO
    TITLE "Цветок у окна"
    PERFORMER "Константин Никольский"
    INDEX 01 22:14:28
  TRACK 10 AUDIO
    TITLE "Один взгляд назад (Ветерок)"
    PERFORMER "Константин Никольский"
    INDEX 01 25:04:70
  TRACK 11 AUDIO
    TITLE "Музыкант"
    PERFORMER "Константин Никольский"
    INDEX 01 28:12:25
  TRACK 12 AUDIO
    TITLE "В моей душе осадок зла"
    PERFORMER "Константин Никольский"
    INDEX 01 32:55:00
  TRACK 13 AUDIO
    TITLE "Голос"
    PERFORMER "Константин Никольский"
    INDEX 01 37:07:65
  TRACK 14 AUDIO
    TITLE "От любви к любви"
    PERFORMER "Константин Никольский"
    INDEX 01 40:32:73
  TRACK 15 AUDIO
    TITLE "Я бреду по бездорожью"
    PERFORMER "Константин Никольский"
    INDEX 01 44:28:28
  TRACK 16 AUDIO
    TITLE "Птицы белые мои"
    PERFORMER "Константин Никольский"
    INDEX 01 47:34:38
  TRACK 17 AUDIO
    TITLE "Ночная птица"
    PERFORMER "Константин Никольский"
    INDEX 01 51:33:70

Лог Audiochecker

CD 1

AUDIOCHECKER v2.0 beta (build 457) - by Dester - opdester@freemail.hu
~~~~~~~~~~~~~~~~~~~~~~~~~~~~~~~~~~
Started at: среда, 29. 07. 2015. - 5:10.33
1 file found
1 -===- D:\Torrent files\Никольский Константин - Музыкант. Лучшие песни. 2CD - 2015\Константин Никольский - Музыкант. Лучшие песни (CD1).flac
  Extracted successfully
  Conclusion: this track is CDDA with probability 99%
  Tempfile successfully deleted.
Finished at: среда, 29. 07. 2015. - 5:14.17 (operation time: 0:03.44)

CD 2

AUDIOCHECKER v2.0 beta (build 457) - by Dester - opdester@freemail.hu
~~~~~~~~~~~~~~~~~~~~~~~~~~~~~~~~~~
Started at: среда, 29. 07. 2015. - 5:14.30
1 file found
1 -===- D:\Torrent files\Никольский Константин - Музыкант. Лучшие песни. 2CD - 2015\Константин Никольский - Музыкант. Лучшие песни (CD2).flac
  Extracted successfully
  Conclusion: this track is CDDA with probability 100%
  Tempfile successfully deleted.
Finished at: среда, 29. 07. 2015. - 5:17.09 (operation time: 0:02.39)
--Не забываем говорить
[Профиль] [ЛС]

Создавать темы 13-Авг-2015 11:05 (спустя 15 дней)

Топик был перенесен из форума Шансон и авторская песня в форум Author's Song
sergej644
 
Кто просматривает тему:

Форум Тема Автор Размер
Author's Song (Author's Song) Александр Розенбаум - Музыка Стихов. Избранное (5CD box) Подарочное издание - 2011, MP3, 320 kbps sergej644 1.1 GB
Шансон, авторская и военная песня (Author's Song) Владимир Высоцкий - Коллекция (New Sound) [15] - 2005 - 2007, MP3 (tracks+image) , 320 kbps sergej644 2.07 GB
Шансон, авторская и военная песня (Author's Song) Владимир Высоцкий - Лучшее (1, 2 Том) (4 CD) - 2008 [MP3, tracks, 320 kbps] sergej644 724 MB
Шансон, авторская и военная песня (Author's Song) Владимир Высоцкий в записях Михаила Шемякина (7CD) - Коллекция - 1996 [MP3, tracks, 320 kbps] sergej644 939 MB
Author's Song (Author's Song) Владимир Высоцкий. Спасибо, что живой (Коллекция изд. Амфора, 11 CD) 2011 - 2012, FLAC (image + .cue), lossless sergej644 2.53 GB
Шансон, авторская и военная песня (Author's Song) Владимир Высоцкий. Спасибо, что живой (Коллекция изд. Амфора, 11 CD) 2011 - 2012, [MP3, tracks, 320 kbps] sergej644 1.05 GB
Author's Song (Author's Song) Высоцкий - Любимые песни и баллады - 2013 [APE, image+.cue, lossless] sergej644 395 MB
Шансон, авторская и военная песня (Author's Song) Игорь Тальков - Collections (8CD) - 1993 - 2001 [FLAC, image+.cue, lossless] sergej644 3.05 GB
Показать сообщения:    

Текущее время: Сегодня 00:35

Часовой пояс: GMT



Вы не можете начинать темы
Вы не можете отвечать на сообщения
Вы не можете редактировать свои сообщения
Вы не можете удалять свои сообщения
Вы не можете голосовать в опросах
Вы не можете прикреплять файлы к сообщениям
Вы не можете скачивать файлы