Никогда не сдавайся 3 / Never Back Down: No Surrender (2016) WEB-DL 720p | iTunes

 
Автор Сообщение

достали все ®

Пол:

Стаж: 1 год 8 месяцев

Сообщений: 6524



Награды: 12 (Подробнее)

Mega Seeder 4 (Количество: 1) Mega Seeder 3 (Количество: 1) Mega Releaser 2 (Количество: 1)
Торрент-статистика

Создавать темы 06-Июн-2016 03:18

[Цитировать]

Информация о фильме
Название: Никогда не сдавайся 3
Оригинальное название: Never Back Down: No Surrender
Год выхода: 2016
Жанр: боевик
Режиссер: Майкл Джей Уайт
В ролях: Майкл Джей Уайт, Джош Барнетт, Джиллиан Уайт, Йанин Висмитананда, Эсай Моралес, Стивен Квадрос, Нэйтан Джонс, Брахим Ачаббаке, Рон Смуренбург, Тони Джа
О фильме: Продолжение бойцовской франшизы о состязаниях по смешанным единоборствам и сопутствующих им закулисных страстях. Экс-звезда Кейс Уокер возвращается на ринг за очередной победой, но старой школе в его лице предстоит потягаться с новой школой.

Выпущено: США / Stage 6 Films
Продолжительность: 01:41:23
Озвучивание: Профессиональное (многоголосное) [iTunes]
Файл
Формат: MKV
Качество: WEB-DL 720p
Видео: MPEG-4 AVC, 3964 kb/s, 1280x718
Аудио: AC3, 384 kb/s (6 ch)

MI

Format : Matroska
Format version : Version 4 / Version 2
File size : 3.14 GiB
Duration : 1h 41mn
Overall bit rate : 4 436 Kbps
Encoded date : UTC 2016-06-05 18:06:55
Writing application : mkvmerge v8.3.0 ('Over the Horizon') 64bit
Writing library : libebml v1.3.1 + libmatroska v1.4.2
DURATION : 01:41:23.072000000
NUMBER_OF_FRAMES : 190096
NUMBER_OF_BYTES : 291987456
_STATISTICS_WRITING_APP : mkvmerge v8.3.0 ('Over the Horizon') 64bit
_STATISTICS_WRITING_DATE_UTC : 2016-06-05 18:06:55
_STATISTICS_TAGS : BPS DURATION NUMBER_OF_FRAMES NUMBER_OF_BYTES
Video
ID : 1
Format : AVC
Format/Info : Advanced Video Codec
Format profile : High@L3.1
Format settings, CABAC : No
Format settings, ReFrames : 2 frames
Codec ID : V_MPEG4/ISO/AVC
Duration : 1h 41mn
Bit rate : 3 964 Kbps
Width : 1 280 pixels
Height : 718 pixels
Display aspect ratio : 16:9
Frame rate mode : Constant
Frame rate : 23.976 fps
Color space : YUV
Chroma subsampling : 4:2:0
Bit depth : 8 bits
Scan type : Progressive
Bits/(Pixel*Frame) : 0.180
Stream size : 2.81 GiB (89%)
Language : English
Default : Yes
Forced : No
Color range : Limited
Color primaries : BT.709
Transfer characteristics : BT.709
Matrix coefficients : BT.709
Audio
ID : 2
Format : AC-3
Format/Info : Audio Coding 3
Mode extension : CM (complete main)
Format settings, Endianness : Big
Codec ID : A_AC3
Duration : 1h 41mn
Bit rate mode : Constant
Bit rate : 384 Kbps
Channel(s) : 6 channels
Channel positions : Front: L C R, Side: L R, LFE
Sampling rate : 48.0 KHz
Bit depth : 16 bits
Compression mode : Lossy
Stream size : 278 MiB (9%)
Language : Russian
Default : Yes
Forced : No
Menu
00:00:00.000 : en:1
00:05:48.807 : en:2
00:12:38.758 : en:3
00:18:37.032 : en:4
00:24:47.235 : en:5
00:31:19.585 : en:6
00:38:53.205 : en:7
00:45:19.966 : en:8
00:52:07.289 : en:9
00:59:06.625 : en:10
01:07:06.438 : en:11
01:12:34.641 : en:12
01:18:51.643 : en:13
01:24:17.593 : en:14
01:31:15.761 : en:15
01:36:48.051 : en:16

Скриншоты



[Профиль] [ЛС]
Показать сообщения:    

Текущее время: Сегодня 15:58

Часовой пояс: GMT



Вы не можете начинать темы
Вы не можете отвечать на сообщения
Вы не можете редактировать свои сообщения
Вы не можете удалять свои сообщения
Вы не можете голосовать в опросах
Вы не можете прикреплять файлы к сообщениям
Вы не можете скачивать файлы