Никогда Не Сдавайся / Never Back Down (Джефф Уадлоу / Jeff Wadlow) [2008, США, Боевик, драма, спорт, BDRip-AVC] Dub + Sub Rus, Eng + Original Eng

 
Автор Сообщение

TorrentFilm ®

Пол:

Стаж: 2 года

Сообщений: 7741



Награды: Нет

Торрент-статистика

Создавать темы 16-Янв-2015 00:00

[Цитировать]

Никогда Не СдавайсяNever Back Down«Win or Lose... Everyone Has Their Fight»
Страна: США
Жанр: Боевик, драма, спорт
Год выпуска: 2008
Продолжительность: 01:53:26
Перевод: Профессиональный (дублированный) Blu-ray
Cубтитры: русские
Оригинальная аудиодорожка: английский
Режиссер: Джефф Уадлоу / Jeff Wadlow
В ролях:
Шон Фарис, Эмбер Хёрд, Кэм Жиганде, Ивэн Питерс, Лесли Хоуп, Джимон Хонсу, Виатт Смит, Эффион Крокетт, Нил Браун мл., Лоурен Лич, Тиффани Маршалл, Александрия Иона
Описание: Джейк Тайлер вместе со всей своей семьей переезжает в Орландо, чтобы поддержать стремление младшего брата добиться успехов в профессиональной теннисной карьере. Джейк, который в родном городе был звёздой футбольной команды, на новом месте превращается в изгоя. Пытаясь как-то адаптироваться в новом обществе, Джейк принимает приглашение очаровательной одноклассницы Байи на вечеринку. Там он вопреки своим желаниям ввязывается в драку с местным задирой Райаном, в результате которой оказывается побитым и униженным.
Доп. информация:
Релиз группы:
Качество видео: BDRip-AVC | Никогда Не Сдавайся / Never Back Down (2008) Blu-ray|HD Club|
Формат видео: MKV
Видео: 1152x480 (2:40:1), 23,976 fps, 3684 Кbps, 0.278 bit/pixe
Аудио: 48 kHz, AC3 Dolby Digital, 3/2 (L,C,R,l,r) + LFE ch, ~448.00 kbps avg | DUB
Аудио 2: 48 kHz, AC3 Dolby Digital, 3/2 (L,C,R,l,r) + LFE ch, ~448.00 kbps avg | ENG
Формат субтитров: softsub (SRT)
Доп. информация о субтитрах: отключаемые

Знаете ли Вы что

* Чтобы обрести облик настоящего бойца, Фэрису пришлось нарастить 15 фунтов мышечной массы.
* Съёмки проходили с 16 июля 2007 года в Лос-Анджелесе и Флориде.
* Рабочее название картины вплоть до декабря 2007 года - «Get Some».
* Спортсменов для фильма нашли в различных школах и спортазалах штата Флорида: Pure Pain Thai Kickboxing (город Winter Springs), в Gracie Bara и Shogun Fight School (город Orlando), а также в Kokopelli's Gym (город Longwood).
* Песня группы Papa Roach «To be loved» звучала в трейлере к фильму, но не была включена в фильм.

MediaInfo

General
Unique ID : 188358372605017735243304041866343704328 (0x8DB480C51B3DFF5292E207F27A8F6708)
Complete name : E:\Мои рипы\Никогда не сдавайся\Никогда не сдавайся by_IVAN@190282.mkv
Format : Matroska
Format version : Version 4 / Version 2
File size : 3.70 GiB
Duration : 1h 53mn
Overall bit rate : 4 673 Kbps
Encoded date : UTC 2015-01-14 12:47:28
Writing application : mkvmerge v7.0.0 ('Where We Going') 64bit built on Jun 9 2014 15:16:27
Writing library : libebml v1.3.0 + libmatroska v1.4.1
DURATION : 01:44:43.568000000
NUMBER_OF_FRAMES : 1221
NUMBER_OF_BYTES : 38240
_STATISTICS_WRITING_APP : mkvmerge v7.0.0 ('Where We Going') 64bit built on Jun 9 2014 15:16:27
_STATISTICS_WRITING_DATE_UTC : 2015-01-14 12:47:28
_STATISTICS_TAGS : BPS DURATION NUMBER_OF_FRAMES NUMBER_OF_BYTES
Video
ID : 1
Format : AVC
Format/Info : Advanced Video Codec
Format profile : High@L4.1
Format settings, CABAC : Yes
Format settings, ReFrames : 13 frames
Codec ID : V_MPEG4/ISO/AVC
Duration : 1h 53mn
Bit rate : 3 684 Kbps
Width : 1 152 pixels
Height : 480 pixels
Display aspect ratio : 2.40:1
Frame rate mode : Constant
Frame rate : 23.976 fps
Color space : YUV
Chroma subsampling : 4:2:0
Bit depth : 8 bits
Scan type : Progressive
Bits/(Pixel*Frame) : 0.278
Stream size : 2.92 GiB (79%)
Writing library : x264 core 144 r2525kMod 40bb568
Encoding settings : cabac=1 / ref=13 / deblock=1:-3:-3 / analyse=0x3:0x113 / me=umh / subme=11 / psy=1 / fade_compensate=0.00 / psy_rd=1.00:0.15 / mixed_ref=1 / me_range=48 / chroma_me=1 / trellis=2 / 8x8dct=1 / cqm=0 / deadzone=21,11 / fast_pskip=0 / chroma_qp_offset=0 / threads=6 / lookahead_threads=6 / sliced_threads=0 / slices=10 / nr=0 / decimate=1 / interlaced=0 / bluray_compat=0 / constrained_intra=0 / fgo=0 / bframes=16 / b_pyramid=2 / b_adapt=2 / b_bias=0 / direct=1 / weightb=1 / open_gop=1 / weightp=2 / keyint=240 / keyint_min=23 / scenecut=40 / intra_refresh=0 / rc_lookahead=40 / rc=crf / mbtree=0 / crf=19.2000 / qcomp=0.60 / qpmin=0 / qpmax=69 / qpstep=4 / vbv_maxrate=50000 / vbv_bufsize=62500 / crf_max=0.0 / nal_hrd=none / filler=0 / ip_ratio=1.40 / pb_ratio=1.30 / aq=1:1.00
Default : Yes
Forced : No
Color primaries : BT.709
Transfer characteristics : BT.709
Matrix coefficients : BT.709
Audio #1
ID : 2
Format : AC-3
Format/Info : Audio Coding 3
Mode extension : CM (complete main)
Format settings, Endianness : Big
Codec ID : A_AC3
Duration : 1h 53mn
Bit rate mode : Constant
Bit rate : 448 Kbps
Channel(s) : 6 channels
Channel positions : Front: L C R, Side: L R, LFE
Sampling rate : 48.0 KHz
Bit depth : 16 bits
Compression mode : Lossy
Stream size : 363 MiB (10%)
Title : Dub
Default : Yes
Forced : No
Audio #2
ID : 3
Format : AC-3
Format/Info : Audio Coding 3
Mode extension : CM (complete main)
Format settings, Endianness : Big
Codec ID : A_AC3
Duration : 1h 53mn
Bit rate mode : Constant
Bit rate : 448 Kbps
Channel(s) : 6 channels
Channel positions : Front: L C R, Side: L R, LFE
Sampling rate : 48.0 KHz
Bit depth : 16 bits
Compression mode : Lossy
Stream size : 363 MiB (10%)
Title : Eng
Default : No
Forced : No
Text #1
ID : 4
Format : UTF-8
Codec ID : S_TEXT/UTF8
Codec ID/Info : UTF-8 Plain Text
Title : Rus
Default : Yes
Forced : No
Text #2
ID : 5
Format : UTF-8
Codec ID : S_TEXT/UTF8
Codec ID/Info : UTF-8 Plain Text
Title : Eng
Default : No
Forced : No
Menu
00:00:00.000 : :Chapter 1
00:07:33.411 : :Chapter 2
00:12:00.302 : :Chapter 3
00:12:59.445 : :Chapter 4
00:15:55.370 : :Chapter 5
00:20:56.922 : :Chapter 6
00:23:15.434 : :Chapter 7
00:25:52.675 : :Chapter 8
00:29:59.255 : :Chapter 9
00:38:14.041 : :Chapter 10
00:46:43.842 : :Chapter 11
00:49:46.315 : :Chapter 12
00:53:19.528 : :Chapter 13
00:55:10.222 : :Chapter 14
00:58:07.858 : :Chapter 15
01:08:42.326 : :Chapter 16
01:12:22.337 : :Chapter 17
01:15:45.707 : :Chapter 18
01:19:10.162 : :Chapter 19
01:22:46.836 : :Chapter 20
01:25:09.686 : :Chapter 21
01:28:07.738 : :Chapter 22
01:31:15.552 : :Chapter 23
01:36:02.756 : :Chapter 24
01:37:35.890 : :Chapter 25
01:40:35.404 : :Chapter 26
01:45:16.518 : :Chapter 27
01:48:44.475 : :Chapter 28

x264 log

VIDEO ENCODING
x264 [info]: frame I:1035 Avg QP:18.02 size: 66018
x264 [info]: frame P:45267 Avg QP:19.77 size: 31894
x264 [info]: frame B:116878 Avg QP:20.05 size: 14524
x264 [info]: consecutive B-frames: 5.8% 7.2% 12.0% 30.0% 14.8% 20.0% 3.7% 2.5% 1.3% 0.7% 0.6% 0.6% 0.4% 0.2% 0.1% 0.1% 0.1%
x264 [info]: kb/s:3772.69
x264 [total]: encoded 163180 frames, 3.61 fps, 3772.69 kb/s, duration 12:33:51.24

Скриншот c названием фильма

Скриншоты

Убедительная просьба пожалуйста кто скачал не бросайте раздачу!!!
[Профиль] [ЛС]

Создавать темы 06-Авг-2015 22:48 (спустя 6 месяцев 21 день)

Топик был перенесен из форума Фильмы до 2014 года в форум Фильмы до 2012 года
sergej644
 

Создавать темы 12-Июн-2016 08:51 (спустя 1 год 4 месяца)

Топик был перенесен из форума Фильмы 2011 года в форум Фильмы 2006-2008 года
Russian Mafia
 
Показать сообщения:    

Текущее время: Сегодня 08:12

Часовой пояс: GMT



Вы не можете начинать темы
Вы не можете отвечать на сообщения
Вы не можете редактировать свои сообщения
Вы не можете удалять свои сообщения
Вы не можете голосовать в опросах
Вы не можете прикреплять файлы к сообщениям
Вы не можете скачивать файлы