Никогда не говори «никогда» / Never Say Never Again (1983) BDRip 1080p | P, A

 
Автор Сообщение

Russian Mafia ®

Пол:

Стаж: 1 год 8 месяцев

Сообщений: 4256



Награды: 10 (Подробнее)

Mega Seeder 2 (Количество: 1) Mega Seeder 4 (Количество: 1) Top Releaser 2 (Количество: 1)
Торрент-статистика

Создавать темы 15-Сен-2015 13:03

[Цитировать]

Информация о фильме
Название: Никогда не говори «никогда»
Оригинальное название: Never Say Never Again
Год выпуска: 1983
Страна: Великобритания, США, Германия
Жанр: Боевик, приключения
Продолжительность: 02:14:05
Перевод: Профессиональный (многоголосый закадровый) x 2, Авторский (одноголосый закадровый)
Субтитры: Русские, английские
Режиссер: Ирвин Кершнер
В ролях: Шон Коннери, Клаус Мария Брандауэр, Макс фон Сюдов, Барбара Каррера, Ким Бейсингер, Берни Кейси, Алек МакКоуэн, Эдвард Фокс, Памела Сейлем, Роуэн Эткинсон
Описание: Используя непостижимый набор оружия, агент 007 собственноручно стирает с лица земли армию врагов Ее Величества. Но когда прелестная пленница втыкает нож в ребра 007, босс супершпиона решает, что настало время его лучшему агенту заняться оттачиванием своего смертельного мастерства. И вот Джеймс Бонд отправляется на лечебный курорт, а фильм «Никогда не говори никогда» готов вновь поражать ваше воображение трюками.
Сумма кассовых сборов в мировом прокате — 160 000 000 $. Мировые кассовые сборы без учёта инфляции (на 2008 год) — более 346 000 000 $.
Молодой Стивен Сигал работал на картине в качестве инструктора по восточным единоборствам. Тренируя Шона Коннери для картины, он сломал ему запястье.
Этот фильм про Джеймса Бонда не считается частью киносериала студии MGM об агенте 007. Кевин МакКлори, продюсер и соавтор сценария «Шаровой молнии», выиграл судебную тяжбу против автора романов о Джеймсе Бонде Яна Флеминга и получил право сделать собственный фильм о том же герое.
Это единственный «бондовский» боевик, в котором нет «фирменного» эпизода, предшествующего начальным титрам.
В финальных титрах приносится благодарность некоему А. К. Она относится к Аднану Кашогги, торговцу оружием из Саудовской Аравии, который разрешил проводить съёмки фильма на борту его шикарной яхты «Набила». Позднее Кашогги продал это судно миллиардеру Дональду Трампу, который переименовал яхту в «Принцессу Трамп». В настоящее время она принадлежит принцу Саудовской Аравии Аль Валид бин Талалу и называется «Kingdom 5KR».
На приёме в доме Ларго стоят игровые автоматы Atari.
Автомобиль Бонда в фильме — Bentley 1937 года.
Помимо пистолета Walther PPK, Бонд также использует чешский автомат Sa vz. 23.
В 1997 году студия MGM приобрела права у компании Talia Films на фильм «Никогда не говори никогда» за $ 15,000,000.
Награды:
1984 год — Номинация на «Golden Globes» (Золотой глобус) за женскую роль второго плана — Барбара Каррера.
1984 год — Премия «Golden Screen» (Германия) за лучший фильм.
1984 год — 2 номинации на «Saturn Award» (Сатурн) за лучший фантастический фильм и лучшие визуальные эффекты.

Файл
Качество: BDRip 1080p
Формат: MKV
Видео кодек: H264
Аудио кодек: AC3
Видео: MPEG4 Video (H264), 1920x816, 23.976fps, 14.0 Mbps
Аудио #01: Русский: Dolby AC3, 48000 Hz, 6ch, 448 kbps - Многоголосый закадровый, R5
Аудио #02: Русский: Dolby AC3, 48000 Hz, 6ch, 448 kbps - Многоголосый закадровый, Ленфильм
Аудио #03: Русский: Dolby AC3, 48000 Hz, 6ch, 448 kbps - Одноголосый, А.Михалёв
Аудио #04: Английский: Dolby AC3, 48000 Hz, 6ch, 448 kbps
Формат субтитров: Softsub (SRT)
Сэмпл

MediaInfo:

General
Unique ID : 252444858785196991479560094114349469528 (0xBDEB1C7D1D69D136A15162A554124F58)
Complete name : F:DVDRip1983 Никогда не говори никогда1983 Никогда не говори никогда.mkv
Format : Matroska
Format version : Version 4 / Version 2
File size : 14.7 GiB
Duration : 2h 14mn
Overall bit rate : 15.7 Mbps
Movie name : 1983 Никогда не говори «никогда» / renta23
Encoded date : UTC 2015-09-15 10:46:26
Writing application : mkvmerge v8.1.0 ('Psychedelic Postcard') 32bit
Writing library : libebml v1.3.1 + libmatroska v1.4.2
DURATION : 02:12:01.330000000
NUMBER_OF_FRAMES : 1030
NUMBER_OF_BYTES : 34722
_STATISTICS_WRITING_APP : mkvmerge v8.1.0 ('Psychedelic Postcard') 32bit
_STATISTICS_WRITING_DATE_UTC : 2015-09-15 10:46:26
_STATISTICS_TAGS : BPS DURATION NUMBER_OF_FRAMES NUMBER_OF_BYTES
Video
ID : 1
Format : AVC
Format/Info : Advanced Video Codec
Format profile : High@L4.1
Format settings, CABAC : Yes
Format settings, ReFrames : 3 frames
Codec ID : V_MPEG4/ISO/AVC
Duration : 2h 14mn
Bit rate : 14.0 Mbps
Width : 1 920 pixels
Height : 816 pixels
Display aspect ratio : 2.35:1
Frame rate mode : Constant
Frame rate : 23.976 fps
Color space : YUV
Chroma subsampling : 4:2:0
Bit depth : 8 bits
Scan type : Progressive
Bits/(Pixel*Frame) : 0.373
Stream size : 12.7 GiB (87%)
Title : 1983 Никогда не говори «никогда»
Writing library : x264 core 146 r2538 121396c
Encoding settings : cabac=1 / ref=4 / deblock=1:-1:-1 / analyse=0x3:0x113 / me=umh / subme=11 / psy=1 / psy_rd=1.15:0.25 / mixed_ref=1 / me_range=32 / chroma_me=1 / trellis=2 / 8x8dct=1 / cqm=0 / deadzone=21,11 / fast_pskip=0 / chroma_qp_offset=-4 / threads=12 / lookahead_threads=3 / sliced_threads=0 / nr=0 / decimate=0 / interlaced=0 / bluray_compat=0 / constrained_intra=0 / bframes=14 / b_pyramid=1 / b_adapt=2 / b_bias=0 / direct=3 / weightb=1 / open_gop=0 / weightp=2 / keyint=250 / keyint_min=23 / scenecut=40 / intra_refresh=0 / rc_lookahead=50 / rc=2pass / mbtree=1 / bitrate=14000 / ratetol=1.0 / qcomp=0.60 / qpmin=0 / qpmax=69 / qpstep=4 / cplxblur=20.0 / qblur=0.5 / vbv_maxrate=14000 / vbv_bufsize=14000 / nal_hrd=none / filler=0 / ip_ratio=1.40 / aq=1:1.00
Language : English
Default : Yes
Forced : No
Audio #1
ID : 2
Format : AC-3
Format/Info : Audio Coding 3
Mode extension : CM (complete main)
Format settings, Endianness : Big
Codec ID : A_AC3
Duration : 2h 14mn
Bit rate mode : Constant
Bit rate : 448 Kbps
Channel(s) : 6 channels
Channel positions : Front: L C R, Side: L R, LFE
Sampling rate : 48.0 KHz
Bit depth : 16 bits
Compression mode : Lossy
Stream size : 430 MiB (3%)
Title : Многоголосый закадровый, R5
Language : Russian
Default : No
Forced : No
Audio #2
ID : 3
Format : AC-3
Format/Info : Audio Coding 3
Mode extension : CM (complete main)
Format settings, Endianness : Big
Codec ID : A_AC3
Duration : 2h 14mn
Bit rate mode : Constant
Bit rate : 448 Kbps
Channel(s) : 6 channels
Channel positions : Front: L C R, Side: L R, LFE
Sampling rate : 48.0 KHz
Bit depth : 16 bits
Compression mode : Lossy
Stream size : 430 MiB (3%)
Title : Многоголосый закадровый, Ленфильм
Language : Russian
Default : No
Forced : No
Audio #3
ID : 4
Format : AC-3
Format/Info : Audio Coding 3
Mode extension : CM (complete main)
Format settings, Endianness : Big
Codec ID : A_AC3
Duration : 2h 14mn
Bit rate mode : Constant
Bit rate : 448 Kbps
Channel(s) : 6 channels
Channel positions : Front: L C R, Side: L R, LFE
Sampling rate : 48.0 KHz
Bit depth : 16 bits
Compression mode : Lossy
Stream size : 430 MiB (3%)
Title : Одноголосый, А.Михалёв
Language : Russian
Default : No
Forced : No
Audio #4
ID : 5
Format : AC-3
Format/Info : Audio Coding 3
Mode extension : CM (complete main)
Format settings, Endianness : Big
Codec ID : A_AC3
Duration : 2h 14mn
Bit rate mode : Constant
Bit rate : 448 Kbps
Channel(s) : 6 channels
Channel positions : Front: L C R, Side: L R, LFE
Sampling rate : 48.0 KHz
Bit depth : 16 bits
Compression mode : Lossy
Stream size : 430 MiB (3%)
Title : Оригинал
Language : English
Default : No
Forced : No
Text #1
ID : 6
Format : UTF-8
Codec ID : S_TEXT/UTF8
Codec ID/Info : UTF-8 Plain Text
Title : Full
Language : Russian
Default : No
Forced : No
Text #2
ID : 7
Format : UTF-8
Codec ID : S_TEXT/UTF8
Codec ID/Info : UTF-8 Plain Text
Title : Full
Language : Russian
Default : No
Forced : No
Text #3
ID : 8
Format : UTF-8
Codec ID : S_TEXT/UTF8
Codec ID/Info : UTF-8 Plain Text
Title : Full
Language : Russian
Default : No
Forced : No
Text #4
ID : 9
Format : UTF-8
Codec ID : S_TEXT/UTF8
Codec ID/Info : UTF-8 Plain Text
Title : Full
Language : Russian
Default : No
Forced : No
Text #5
ID : 10
Format : UTF-8
Codec ID : S_TEXT/UTF8
Codec ID/Info : UTF-8 Plain Text
Title : Force
Language : Russian
Default : No
Forced : No
Text #6
ID : 11
Format : UTF-8
Codec ID : S_TEXT/UTF8
Codec ID/Info : UTF-8 Plain Text
Language : English
Default : No
Forced : No
Menu
00:00:00.000 : en:1. Logo/Title/Intro
00:04:28.476 : en:2. Purge Those Toxins
00:07:32.451 : en:3. Spectre Hq
00:12:47.391 : en:4. Physical Relations
00:16:47.464 : en:5. One Hell of a Nurse
00:21:37.337 : en:6. Basic Training
00:25:00.290 : en:7. The Blink of an Eye
00:29:25.221 : en:8. What a Snake
00:35:06.145 : en:9. Diverting Missiles
00:38:27.763 : en:10. Worldwide Panic
00:41:24.440 : en:11. The Tears of Allah
00:46:22.905 : en:12. No Money for Q
00:50:48.628 : en:13. Foreign But Charming
00:54:53.289 : en:14. Fishing Expedition
00:59:38.741 : en:15. A Shark View
01:05:14.243 : en:16. An Awkward Moment
01:10:16.670 : en:17. Nice's Nice View
01:17:09.750 : en:18. "Hard or Soft?"
01:20:55.058 : en:19. The Challenge
01:26:10.372 : en:20. Playing for Domino
01:31:49.754 : en:21. Bad News Tango
01:37:04.527 : en:22. The New Bike
01:40:49.084 : en:23. Fatima's Legacy
01:43:45.969 : en:24. Lunch?
01:45:54.723 : en:25. Betrayed with a Kiss
01:52:10.598 : en:26. A Gift for the Damned
01:54:45.795 : en:27. Selling Domino
01:58:13.044 : en:28. Other Plans
02:02:49.111 : en:29. Map of the Tears
02:09:38.645 : en:30. Clearing the Cave
02:14:49.623 : en:31. Underwater Battle
02:17:46.424 : en:32. Never Again/Credits

[Профиль] [ЛС]
Показать сообщения:    

Текущее время: Сегодня 20:29

Часовой пояс: GMT



Вы не можете начинать темы
Вы не можете отвечать на сообщения
Вы не можете редактировать свои сообщения
Вы не можете удалять свои сообщения
Вы не можете голосовать в опросах
Вы не можете прикреплять файлы к сообщениям
Вы не можете скачивать файлы