НИКА - Легендарные ХИТЫ + новые песни (2012) [FLAC|Lossless]<PopMusic>

 
Автор Сообщение

sergej644 ®

Пол:

Стаж: 4 года 11 месяцев

Сообщений: 6043

Откуда: Soviet Union



Награды: Нет

Торрент-статистика

Создавать темы 19-Ноя-2014 20:24

[Цитировать]

-НИКА - Легендарные ХИТЫ + новые песни (2012)- Год: 2012
Страна-производитель диска: Россия
Издатель (лейбл): Классик Компани
Номер по каталогу: СС CD 12/12
Жанр: PopMusic
Продолжительность: 01:12:22
Кодек: FLAC
Битрейт: Lossless
Тип рипа: image+.cue
Треклист:
01. Подари мне поцелуй (3:29)
02. Это не мой секрет (3:08)
03. Карие глаза (3:37)
04. Кораблик счастья (3:22)
05. Сколько лет, сколько зим (4:16)
06. Гуляй, Россия (3:39)
07. Пять минут (3:22)
08. Цветочек аленький (4:33)
09. Я не верю (3:39)
10. Девочка ждет - feat.Н.Ким Арамис (4:27)
11. Без тебя (2:40)
12. Только подойди (4:01)
13. Не обещай (4:02)
14. Я не стану ворожить (4:33)
15. Не уезжай (3:47)
16. Бумажные цветы (3:01)
17. Три хризантемы (4:08)
18. Секс-бомба (4:20)
19. Любовь в 17 лет (4:16)

Отчёт ЕАС&#58;

Exact Audio Copy V1.0 beta 3 from 29. August 2011
Отчёт EAC об извлечении, выполненном 08. марта 2014, 3:32
Ника / Легендарные хиты + новые песни
Дисковод: ASUS    DRW-1814BLT   Adapter: 2  ID: 0
Режим чтения                 : Достоверность
Использование точного потока : Да
Отключение кэша аудио        : Да
Использование указателей C2  : Нет
Коррекция смещения при чтении                     : 6
Способность читать области Lead-in и Lead-out     : Нет
Заполнение пропущенных сэмплов тишиной            : Да
Удаление блоков с тишиной в начале и конце        : Нет
При вычислениях CRC использовались нулевые сэмплы : Да
Интерфейс                                         : Встроенный Win32-интерфейс для Win NT/2000
Выходной формат : Внутренние WAV-операции
Формат сэмплов  : 44.100 Гц; 16 бит; стерео
TOC извлечённого CD
     Трек |   Старт  | Длительность | Начальный сектор | Конечный сектор
    ---------------------------------------------------------------------
       1  |  0:00.00 |    3:29.20   |           0      |      15694
       2  |  3:29.20 |    3:07.52   |       15695      |      29771
       3  |  6:36.72 |    3:36.60   |       29772      |      46031
       4  | 10:13.57 |    3:22.24   |       46032      |      61205
       5  | 13:36.06 |    4:16.34   |       61206      |      80439
       6  | 17:52.40 |    3:39.32   |       80440      |      96896
       7  | 21:31.72 |    3:22.21   |       96897      |     112067
       8  | 24:54.18 |    4:33.07   |      112068      |     132549
       9  | 29:27.25 |    3:38.74   |      132550      |     148973
      10  | 33:06.24 |    4:26.50   |      148974      |     168973
      11  | 37:32.74 |    2:40.02   |      168974      |     180975
      12  | 40:13.01 |    4:01.30   |      180976      |     199080
      13  | 44:14.31 |    4:01.50   |      199081      |     217205
      14  | 48:16.06 |    4:33.30   |      217206      |     237710
      15  | 52:49.36 |    3:46.71   |      237711      |     254731
      16  | 56:36.32 |    3:00.57   |      254732      |     268288
      17  | 59:37.14 |    4:08.29   |      268289      |     286917
      18  | 63:45.43 |    4:20.23   |      286918      |     306440
      19  | 68:05.66 |    4:16.32   |      306441      |     325672
Характеристики диапазона извлечения и сообщения об ошибках
Выбранный диапазон
     Имя файла Ника - Легендарные хиты + новые песни\Ника - Легендарные хиты + новые песни.wav
     Пиковый уровень 99.4 %
     Скорость извлечения 8.2 X
     Качество диапазона 100.0 %
     CRC теста E8B05B29
     CRC копии E8B05B29
     Копирование... OK
Ошибок не произошло
AccurateRip: сводка
Трек  1  отсутствует в базе данных
Трек  2  отсутствует в базе данных
Трек  3  отсутствует в базе данных
Трек  4  отсутствует в базе данных
Трек  5  отсутствует в базе данных
Трек  6  отсутствует в базе данных
Трек  7  отсутствует в базе данных
Трек  8  отсутствует в базе данных
Трек  9  отсутствует в базе данных
Трек 10  отсутствует в базе данных
Трек 11  отсутствует в базе данных
Трек 12  отсутствует в базе данных
Трек 13  отсутствует в базе данных
Трек 14  отсутствует в базе данных
Трек 15  отсутствует в базе данных
Трек 16  отсутствует в базе данных
Трек 17  отсутствует в базе данных
Трек 18  отсутствует в базе данных
Трек 19  отсутствует в базе данных
Ни одного трека нет в базе AccurateRip
Конец отчёта
==== Контрольная сумма отчёта 263E5947FC700C81E8E39C65B87CE1D471672FE9AC7EAF002B10404BE4E189C4 ====

Отчёт auCDtect Task manager&#58;

-----------------------
DON'T MODIFY THIS FILE
-----------------------
PERFORMER: auCDtect Task Manager, ver. 1.5.1RC6 build 1.5.1.7
Copyright (c) 2008-2010 y-soft. All rights reserved
http://y-soft.org
ANALYZER: auCDtect: CD records authenticity detector, version 0.8.2
Copyright (c) 2004 Oleg Berngardt. All rights reserved.
Copyright (c) 2004 Alexander Djourik. All rights reserved.
FILE: Ника - Легендарные хиты + новые песни.flac
  Size: 572218732 Hash: DCF1FDBE0BA845B6BCB5EBB72CE207EB Accuracy: -m0
  Conclusion: CDDA 100%
  Signature: BFAB04E6C2ADFA7E3359716B44BE26EE7650562B

Спектрограмма&#58;

Время раздачи: 24/7 до 5 скачавших---
[Профиль] [ЛС]

Создавать темы 13-Авг-2015 10:08 (спустя 8 месяцев 23 дня)

Топик был перенесен из форума Отечественная в форум Pop
sergej644
 
Кто просматривает тему:

Показать сообщения:    

Текущее время: Сегодня 10:53

Часовой пояс: GMT



Вы не можете начинать темы
Вы не можете отвечать на сообщения
Вы не можете редактировать свои сообщения
Вы не можете удалять свои сообщения
Вы не можете голосовать в опросах
Вы не можете прикреплять файлы к сообщениям
Вы не можете скачивать файлы