Никаких добрых дел / No Good Deed (2014) BDRip 1080p | iTunes

 
Автор Сообщение

sergej644 ®

Пол:

Стаж: 4 года 11 месяцев

Сообщений: 6038

Откуда: Soviet Union



Награды: Нет

Торрент-статистика

Создавать темы 27-Дек-2014 16:37

[Цитировать]

Информация о фильме
Название: Никаких добрых дел
Оригинальное название: No Good Deed
Год выхода: 2014
Жанр: триллер, криминал
Режиссер: Сэм Миллер / Sam Miller
В ролях: Идрис Эльба, Тараджи П. Хенсон, Лесли Бибб, Кейт дель Кастильо, Генри Симмонс, Mirage Moonschein, Кенни Альфонсо, Дэн Кодилл, Татом Пендер, Келли О’Нил
О фильме:
В центре повествования женщина-прокурор, решившая стать домохозяйкой. Однако детей героини похищают после того, как она приглашает в дом симпатичного незнакомца, дожидавшегося неподалеку эвакуатора.
Страна: США
Продолжительность: 01:23:53
Перевод: Профессиональный (многоголосый закадровый) iTunes
Файл
Кодек: x264
Качество: BDRip 1080p
Видео: MPEG-4 AVC, 19.7 Mбит/с, 1920x800, 23,976 fps
Звук:
Rus, AC3, 384 kb/s (6 ch), 48 kHz
Eng, DTS, 1510 kb/s (6 ch), 48 kHz
Субтитры: Eng

MediaInfo

Format : Matroska
Format version : Version 4 / Version 2
File size : 12.9 GiB
Duration : 1h 23mn
Overall bit rate : 22.0 Mbps
Movie name : Tonik
Encoded date : UTC 2014-12-27 11:22:54
Writing application : mkvmerge v7.1.0 ('Good Love') 64bit built on Jul 27 2014 13:06:55
Writing library : libebml v1.3.0 + libmatroska v1.4.1
_STATISTICS_WRITING_APP : mkvmerge v7.1.0 ('Good Love') 64bit built on Jul 27 2014 13:06:55
_STATISTICS_WRITING_DATE_UTC : 2014-12-27 11:22:54
_STATISTICS_TAGS : BPS DURATION NUMBER_OF_FRAMES NUMBER_OF_BYTES
DURATION : 01:23:24.832000000
NUMBER_OF_FRAMES : 1309
NUMBER_OF_BYTES : 39585
Video
ID : 1
Format : AVC
Format/Info : Advanced Video Codec
Format profile : High@L4.1
Format settings, CABAC : Yes
Format settings, ReFrames : 5 frames
Codec ID : V_MPEG4/ISO/AVC
Duration : 1h 23mn
Bit rate : 19.7 Mbps
Width : 1 920 pixels
Height : 800 pixels
Display aspect ratio : 2.40:1
Frame rate mode : Constant
Frame rate : 23.976 fps
Color space : YUV
Chroma subsampling : 4:2:0
Bit depth : 8 bits
Scan type : Progressive
Bits/(Pixel*Frame) : 0.535
Stream size : 11.6 GiB (89%)
Writing library : x264 core 142 r2431kMod ac76440
Encoding settings : cabac=1 / ref=5 / deblock=1:-3:-3 / analyse=0x3:0x133 / me=umh / subme=11 / psy=1 / fade_compensate=0.00 / psy_rd=1.05:0.00 / mixed_ref=1 / me_range=24 / chroma_me=1 / trellis=2 / 8x8dct=1 / cqm=0 / deadzone=21,11 / fast_pskip=0 / chroma_qp_offset=-2 / threads=24 / lookahead_threads=4 / sliced_threads=0 / nr=0 / decimate=0 / interlaced=0 / bluray_compat=0 / constrained_intra=0 / fgo=0 / bframes=8 / b_pyramid=2 / b_adapt=2 / b_bias=0 / direct=3 / weightb=1 / open_gop=0 / weightp=2 / keyint=250 / keyint_min=23 / scenecut=40 / intra_refresh=0 / rc=crf / mbtree=0 / crf=16.0000 / qcomp=0.70 / qpmin=0 / qpmax=69 / qpstep=4 / ip_ratio=1.20 / pb_ratio=1.10 / aq=3:0.85
Language : English
Default : Yes
Forced : No
DURATION : 01:23:53.028000000
NUMBER_OF_FRAMES : 120672
NUMBER_OF_BYTES : 12675866869
_STATISTICS_WRITING_APP : mkvmerge v7.1.0 ('Good Love') 64bit built on Jul 27 2014 13:06:55
_STATISTICS_WRITING_DATE_UTC : 2014-12-27 11:22:54
_STATISTICS_TAGS : BPS DURATION NUMBER_OF_FRAMES NUMBER_OF_BYTES
Audio #1
ID : 2
Format : AC-3
Format/Info : Audio Coding 3
Mode extension : CM (complete main)
Format settings, Endianness : Big
Codec ID : A_AC3
Duration : 1h 23mn
Bit rate mode : Constant
Bit rate : 384 Kbps
Channel(s) : 6 channels
Channel positions : Front: L C R, Side: L R, LFE
Sampling rate : 48.0 KHz
Bit depth : 16 bits
Compression mode : Lossy
Stream size : 230 MiB (2%)
Title : iTunes
Language : Russian
Default : Yes
Forced : No
Audio #2
ID : 3
Format : DTS
Format/Info : Digital Theater Systems
Mode : 16
Format settings, Endianness : Big
Codec ID : A_DTS
Duration : 1h 23mn
Bit rate mode : Constant
Bit rate : 1 509 Kbps
Channel(s) : 6 channels
Channel positions : Front: L C R, Side: L R, LFE
Sampling rate : 48.0 KHz
Bit depth : 24 bits
Compression mode : Lossy
Stream size : 905 MiB (7%)
Language : English
Default : No
Forced : No
Text #1
ID : 4
Format : UTF-8
Codec ID : S_TEXT/UTF8
Codec ID/Info : UTF-8 Plain Text
Language : English
Default : No
Forced : No
Text #2
ID : 5
Format : UTF-8
Codec ID : S_TEXT/UTF8
Codec ID/Info : UTF-8 Plain Text
Title : SDH
Language : English
Default : No
Forced : No
Menu
00:00:00.000 : en:00:00:00.000
00:07:43.713 : en:00:07:43.713
00:13:47.994 : en:00:13:47.994
00:18:16.220 : en:00:18:16.220
00:23:17.187 : en:00:23:17.187
00:28:47.684 : en:00:28:47.684
00:32:50.135 : en:00:32:50.135
00:38:17.170 : en:00:38:17.170
00:43:39.450 : en:00:43:39.450
00:47:30.514 : en:00:47:30.514
00:52:32.983 : en:00:52:32.983
00:58:31.007 : en:00:58:31.007
01:03:35.603 : en:01:03:35.603
01:08:52.754 : en:01:08:52.754
01:14:03.397 : en:01:14:03.397
01:19:33.727 : en:01:19:33.727

Скриншоты

[Профиль] [ЛС]
Показать сообщения:    

Текущее время: Сегодня 12:34

Часовой пояс: GMT



Вы не можете начинать темы
Вы не можете отвечать на сообщения
Вы не можете редактировать свои сообщения
Вы не можете удалять свои сообщения
Вы не можете голосовать в опросах
Вы не можете прикреплять файлы к сообщениям
Вы не можете скачивать файлы