Низкое зимнее солнце / Low Winter Sun (Адриан Шерголд / Adrian Shergold) [2006, Великобритания, США, Триллер, драма, криминал, DVDRip] VO (Студия Райдо)

 
Автор Сообщение

reversefile ®

Пол:

Стаж: 4 года 5 месяцев

Сообщений: 842

Откуда: ReverseFile.org



Награды: Нет

Торрент-статистика

Создавать темы 13-Авг-2014 10:04

[Цитировать]

Низкое зимнее солнце / Low Winter Sun
Страна: Великобритания, США
Жанр: Триллер, драма, криминал
Год выпуска: 2006
Продолжительность: 02:01:32
Перевод: Одноголосый закадровый / Студия Райдо
Cубтитры: нет
Режиссер: Адриан Шерголд / Adrian Shergold
В ролях: Джимми Чишолм, Ирэн Багач, Марк Стронг, Брайан МакКарди, Фиона Белл, Ричард Конлон, Пол Донелли, Мишель Дункан, Фэт Фрэнк, Алекс Фернз
Описание: История о работе шотландской полиции. Два полицейских детектива Эдинбурга убивают третьего и обставляют всё так, словно тот совершил самоубийство. Труп сажают за руль автомобиля, который сбрасывают с пирса. И всё бы ничего, если бы при подъёме этой машины не нашли два трупа! Второй оказался в багажнике с отрубленными руками и без головы… Для чего полицейским понадобилось убивать коллегу и как они теперь выкрутятся?
Доп. информация: Присутствует ненориативная лексика
Сэмпл: http://sendfile.su/1000520
Качество видео: DVDRip
Формат видео: AVI
Видео: XviD, 720x416, 1519 kbps, 25 fps
Аудио: MP3, 48 кГц, 2 ch, 192 Кбит/с

MediaInfo

D:\Фильмы\Nizkoe Zimnee Solnce.2006.XviD.DVDRip.Raidho.avi
General
Complete name : D:\Фильмы\Nizkoe Zimnee Solnce.2006.XviD.DVDRip.Raidho.avi
Format : AVI
Format/Info : Audio Video Interleave
File size : 1.46 GiB
Duration : 2h 1mn
Overall bit rate : 1 721 Kbps
Writing application : VirtualDubMod 1.5.10.2 (build 2540/release)
Writing library : VirtualDubMod build 2540/release
Video #0
ID : 0
Format : MPEG-4 Visual
Format profile : Advanced Simple@L5
Format settings, BVOP : 1
Format settings, QPel : No
Format settings, GMC : No warppoints
Format settings, Matrix : Custom
Codec ID : XVID
Codec ID/Hint : XviD
Duration : 2h 1mn
Bit rate : 1 519 Kbps
Width : 720 pixels
Height : 416 pixels
Display aspect ratio : 1.731
Frame rate : 25.000 fps
Color space : YUV
Chroma subsampling : 4:2:0
Bit depth : 8 bits
Scan type : Progressive
Compression mode : Lossy
Bits/(Pixel*Frame) : 0.203
Stream size : 1.29 GiB (88%)
Writing library : XviD 1.2.1 (UTC 2008-12-04)
Audio #1
ID : 1
Format : MPEG Audio
Format version : Version 1
Format profile : Layer 3
Mode : Joint stereo
Codec ID : 55
Codec ID/Hint : MP3
Duration : 2h 1mn
Bit rate mode : Constant
Bit rate : 192 Kbps
Channel(s) : 2 channels
Sampling rate : 48.0 KHz
Compression mode : Lossy
Stream size : 167 MiB (11%)
Alignment : Aligned on interleaves
Interleave, duration : 40 ms (1.00 video frame)
Interleave, preload duration : 504 ms
Language : English

Скриншот c названием фильма

Скриншоты

[Профиль] [ЛС]

Создавать темы 06-Авг-2015 23:18 (спустя 11 месяцев 24 дня)

Топик был перенесен из форума Фильмы до 2014 года в форум Фильмы до 2012 года
sergej644
 
Показать сообщения:    

Текущее время: Сегодня 01:28

Часовой пояс: GMT



Вы не можете начинать темы
Вы не можете отвечать на сообщения
Вы не можете редактировать свои сообщения
Вы не можете удалять свои сообщения
Вы не можете голосовать в опросах
Вы не можете прикреплять файлы к сообщениям
Вы не можете скачивать файлы