Нижегородское вече (RTG) [2013,,Документальный, HDTV 1080i]

 
Автор Сообщение

TorrentFilm ®

Пол:

Стаж: 2 года

Сообщений: 7741



Награды: Нет

Торрент-статистика

Создавать темы 27-Апр-2015 00:04

[Цитировать]

Нижeгoрoдскоe вeчe
Год выпуска: 2013
Страна: Россия
Студия:
Жанр: ,Документальный
Продолжительность: 00:26:00
Перевод: Не требуется
Режиссер:
Описание: В Великом Новгороде сегодня, 12 июля 2013 года, съемочная команда телеканала Russian Travel Guide TV начинает съемки фильма, в который войдут достопримечательности Великого Новгорода и Старой Руссы, но центральным событием программы станет шоу «Новгородское Вече» – ведущие планируют сами испытать на себе все «Потехи Древнего Города» и рассказать о своих впечатлениях.
Шоу «Новгородское вече» — это интерактивная программа и масштабный спектакль на открытом воздухе с участием актеров, танцоров, фаерщиков, реконструкторов, ремесленников. Кроме того, это один из самых известных проектов в сфере событийного туризма Великого Новгорода, трехкратный дипломант Всероссийской премии в области массовых форм театрального искусства «Грани театра масс», обладатель специального приза Russian open Event Ехро.
Тип релиза: HDTV 1080i
Контейнер: TS
Видео: MPEG4 Video (H264) 1920x1080 25fps 8137 Кбит/сек
Аудио: Audio: MPEG Audio 48000Hz stereo 192kbps
Формат субтитров: СС (Closed Captions)

MediaInfo

ормат : MPEG-TSРазмер файла : 1,61 ГбайтПродолжительность : 26 м.Режим общего битрейта : ПеременныйОбщий поток : 8764 Кбит/сек
ВидеоИдентификатор : 1721 (0x6B9)Идентификатор меню : 17002 (0x426A)Формат : AVCФормат/Информация : Advanced Video CodecПрофиль формата : Main@L4Параметр CABAC формата : ДаПараметр ReFrames формата : 3 кадраИдентификатор кодека : 27Продолжительность : 26 м.Битрейт : 8137 Кбит/секШирина : 1920 пикселейВысота : 1080 пикселейСоотношение сторон : 16:9Частота кадров : 25,000 кадров/секСтандарт вещания : ComponentЦветовое пространство : YUVСубдискретизация насыщенности : 4:2:0Битовая глубина : 8 битТип развёртки : ЧересстрочнаяПорядок развёртки : Верхнее поле первоеБит/(Пиксели*Кадры) : 0.157Размер потока : 1,49 Гбайт (93%)Цветовой диапазон : LimitedОсновные цвета : BT.709Характеристики трансфера : BT.709Коэффициенты матрицы : BT.709
АудиоИдентификатор : 1722 (0x6BA)Идентификатор меню : 17002 (0x426A)Формат : MPEG AudioВерсия формата : Version 1Профиль формата : Layer 2Идентификатор кодека : 3Продолжительность : 26 м.Вид битрейта : ПостоянныйБитрейт : 192 Кбит/секКаналы : 2 каналаЧастота : 48,0 КГцМетод сжатия : С потерямиРазмер потока : 36,0 Мбайт (2%)Язык : Russian

Скриншоты





[Профиль] [ЛС]
Кто просматривает тему:

Показать сообщения:    

Текущее время: Сегодня 00:45

Часовой пояс: GMT



Вы не можете начинать темы
Вы не можете отвечать на сообщения
Вы не можете редактировать свои сообщения
Вы не можете удалять свои сообщения
Вы не можете голосовать в опросах
Вы не можете прикреплять файлы к сообщениям
Вы не можете скачивать файлы