Нигде в Африке / Nowhere in Africa / Nirgendwo in Afrika (Каролина Линк / Caroline Link) [2001, Германия, драма, биография, BDRip 720p] MVO (ЕА) + Sub (Rus, Ger, Eng) + Original Ger

 
Автор Сообщение

reversefile ®

Пол:

Стаж: 4 года 5 месяцев

Сообщений: 842

Откуда: ReverseFile.org



Награды: Нет

Торрент-статистика

Создавать темы 13-Авг-2014 18:26

[Цитировать]

Нигде в Африке / Nowhere in Africa / Nirgendwo in Afrika
Страна: Германия
Студия: Bavaria Film, Constantin Film Produktion GmbH и др.
Жанр: драма, биография
Год выпуска: 2001
Продолжительность: 02:21:15
Перевод: Профессиональный (многоголосый закадровый) Екатеринбург-Арт/R5
Cубтитры: русские, немецкие, английские
Оригинальная аудиодорожка: немецкий
Режиссер: Каролина Линк / Caroline Link
В ролях: Юлиана Кёлер, Мераб Нинидзе, Сидеде Оньюло, Маттиас Хабих, Леа Курка, Каролина Эккерц, Герд Хайнц, Хильдегард Шмаль, Маритта Хорварт, Регина Циммерманн
Описание: По роману Стефани Цвейг. В 1938 году Йеттель и ее пятилетняя дочь Регина едва успевают бежать из Германии в Африку, где уже обосновался их муж и отец Вальтер. После «цивилизованной» Европы Вальтер и Йеттель не сразу свыклись с тем, что неопределенное время они должны будут провести на отдаленной ферме в Кении. А Регина быстро привыкла к новой жизни, выучила язык и подружилась с местными жителями. Красота «черного континента» приводит ее в неописуемый восторг, передающийся ее родителям.

Sample
Тип релиза: BDRip 720p - TayTO
Контейнер: MKV
Видео: MPEG4 AVC Video, H264, 1280x544, 24 fps, 6600 Kbps
Аудио: Russian (AC3, 2 ch, 192 kbps, 16 bits, 48.0 KHz) - MVO ЕА
Аудио 2: German (AC3, 6 ch, 640 kbps, 16 bits, 48.0 KHz) - оригинал
Формат субтитров: softsub (SRT)

MediaInfoлог x264

x264 [info]: frame I:1330 Avg QP:13.68 size:140079
x264 [info]: frame P:55988 Avg QP:16.56 size: 60207
x264 [info]: frame B:146101 Avg QP:18.46 size: 23510
x264 [info]: consecutive B-frames: 6.4% 5.3% 12.5% 24.0% 17.2% 27.5% 4.5% 1.6% 0.4% 0.6%
General
Unique ID : 210052222006778863911646354363249727866 (0x9E06961FEF6BE696B4965D1CD0C2197A)
Complete name : E:\1\Nirgendwo.in.Afrika.2001.720p.BluRay.DD5.1.x264-TayTO\Нигде в Африке 2001 BDRip 720p-TayTO.mkv
Format : Matroska
Format version : Version 4 / Version 2
File size : 7.34 GiB
Duration : 2h 21mn
Overall bit rate : 7 434 Kbps
Encoded date : UTC 2014-08-10 19:47:27
Writing application : mkvmerge v6.1.0 ('Old Devil') built on Mar 2 2013 14:32:37
Writing library : libebml v1.3.0 + libmatroska v1.4.0
Video
ID : 1
Format : AVC
Format/Info : Advanced Video Codec
Format profile : High@L4.1
Format settings, CABAC : Yes
Format settings, ReFrames : 12 frames
Codec ID : V_MPEG4/ISO/AVC
Duration : 2h 21mn
Bit rate : 6 600 Kbps
Width : 1 280 pixels
Height : 544 pixels
Display aspect ratio : 2.35:1
Frame rate mode : Constant
Frame rate : 24.000 fps
Color space : YUV
Chroma subsampling : 4:2:0
Bit depth : 8 bits
Scan type : Progressive
Bits/(Pixel*Frame) : 0.395
Stream size : 6.37 GiB (87%)
Writing library : x264 core 142 r2431kMod ac76440
Encoding settings : cabac=1 / ref=12 / deblock=1:-3:-3 / analyse=0x3:0x133 / me=tesa / subme=11 / psy=1 / fade_compensate=0.00 / psy_rd=1.00:0.00 / mixed_ref=1 / me_range=24 / chroma_me=1 / trellis=2 / 8x8dct=1 / cqm=0 / deadzone=21,11 / fast_pskip=0 / chroma_qp_offset=-2 / threads=12 / lookahead_threads=2 / sliced_threads=0 / nr=0 / decimate=1 / interlaced=0 / bluray_compat=0 / constrained_intra=0 / fgo=0 / bframes=9 / b_pyramid=2 / b_adapt=2 / b_bias=0 / direct=3 / weightb=1 / open_gop=0 / weightp=2 / keyint=250 / keyint_min=24 / scenecut=40 / intra_refresh=0 / rc=2pass / mbtree=0 / bitrate=6600 / ratetol=1.0 / qcomp=0.65 / qpmin=0 / qpmax=69 / qpstep=4 / cplxblur=20.0 / qblur=0.5 / ip_ratio=1.40 / pb_ratio=1.30 / aq=1:0.80
Language : English
Default : Yes
Forced : No
Matrix coefficients : BT.709
Audio #1
ID : 2
Format : AC-3
Format/Info : Audio Coding 3
Mode extension : CM (complete main)
Format settings, Endianness : Big
Codec ID : A_AC3
Duration : 2h 21mn
Bit rate mode : Constant
Bit rate : 192 Kbps
Channel count : 2 channels
Channel positions : Front: L R
Sampling rate : 48.0 KHz
Bit depth : 16 bits
Compression mode : Lossy
Stream size : 194 MiB (3%)
Title : MVO
Language : Russian
Default : Yes
Forced : No
Audio #2
ID : 3
Format : AC-3
Format/Info : Audio Coding 3
Mode extension : CM (complete main)
Format settings, Endianness : Big
Codec ID : A_AC3
Duration : 2h 21mn
Bit rate mode : Constant
Bit rate : 640 Kbps
Channel count : 6 channels
Channel positions : Front: L C R, Side: L R, LFE
Sampling rate : 48.0 KHz
Bit depth : 16 bits
Compression mode : Lossy
Stream size : 647 MiB (9%)
Language : German
Default : No
Forced : No
Text #1
ID : 4
Format : UTF-8
Codec ID : S_TEXT/UTF8
Codec ID/Info : UTF-8 Plain Text
Language : Russian
Default : No
Forced : No
Text #2
ID : 5
Format : UTF-8
Codec ID : S_TEXT/UTF8
Codec ID/Info : UTF-8 Plain Text
Language : German
Default : No
Forced : No
Text #3
ID : 6
Format : UTF-8
Codec ID : S_TEXT/UTF8
Codec ID/Info : UTF-8 Plain Text
Language : English
Default : No
Forced : No
Menu
00:00:00.000 : en:00:00:00.000
00:10:57.625 : en:00:10:57.625
00:22:43.000 : en:00:22:43.000
00:35:16.166 : en:00:35:16.166
00:47:19.750 : en:00:47:19.750
00:59:15.708 : en:00:59:15.708
01:13:52.541 : en:01:13:52.541
01:21:49.250 : en:01:21:49.250
01:34:00.625 : en:01:34:00.625
01:46:50.582 : en:01:46:50.582
01:58:46.250 : en:01:58:46.250
02:09:43.875 : en:02:09:43.875

Скриншоты

Source / Encode
[Профиль] [ЛС]
Кто просматривает тему:

Показать сообщения:    

Текущее время: Сегодня 10:06

Часовой пояс: GMT



Вы не можете начинать темы
Вы не можете отвечать на сообщения
Вы не можете редактировать свои сообщения
Вы не можете удалять свои сообщения
Вы не можете голосовать в опросах
Вы не можете прикреплять файлы к сообщениям
Вы не можете скачивать файлы