Нибелунги: Зигфрид / Die Nibelungen, Teil 1 - Siegfried (1966) BDRip 720p

 
Автор Сообщение

Russian Mafia ®

Пол:

Стаж: 1 год 8 месяцев

Сообщений: 4257



Награды: 10 (Подробнее)

Mega Seeder 5 (Количество: 1) Mega Seeder 4 (Количество: 1) Top Releaser 4 (Количество: 1)
Торрент-статистика

Создавать темы 15-Сен-2015 06:21

[Цитировать]

Страна: Германия (ФРГ), Югославия
Жанр: фэнтези, приключения
Год выпуска: 1966
Продолжительность: 01:28:51
Перевод: Профессиональный (одноголосый) + Оригинальный-Режиссер: Харальд Райнль / Harald Reinl-В ролях: Уве Бейер (Siegfried), Рольф Хеннигер (KГ¶nig Gunther), Зигфрид Вишневски (Hagen), Мария Марлоу (Kriemhild), Ганс фон Борсоди (Volker von Alzey), Теренс Хилл (Giselher), Фред Уильямс (Gernot), Дитер Эпплер (RГјdiger von Bechlarn), Самсон Бурк (Blo-Edin), Скип Мартин (Alberich), Хильде Вайсснер (KГ¶nigin Ute), Барбара Болд (Hildegunt)-Описание: Несметные сокровища загадочных Нибелунгов издревле привлекали доблестных рыцарей и отважных королей. И только неуязвимый Зигфрид - победитель дракона - сумел завладеть заветным кладом. Но эти несметные богатства не принесли счастья ни герою, ни его землям.Лишь алчность породили они в сердцах властителей-соседей.- -Семпл-Качество: BDRip
Контейнер: MKV
Видео: AVC, 1280x544 (2.35:1), 6468 kbps, 24 fps, 0,387 bpp
Аудио №1: русский / AC3 / 5.1 / 48 kHz / 384 kbps
Аудио №2: немецкий / AC3 / 2.0 / 48 kHz / 192 kbps
Навигация по главам: есть-

Media Info

---------------------------------------------------------------
x264 [info]: frame I:1116 Avg QP:17.14 size:152122
x264 [info]: frame P:68602 Avg QP:19.49 size: 48998
x264 [info]: frame B:58236 Avg QP:21.40 size: 13380
---------------------------------------------------------------
Format : Matroska
Format version : Version 2
File size : 4.37 GiB
Duration : 1h 28mn
Overall bit rate : 7 046 Kbps
Movie name : = Нибелунги. Часть 1. Зигфрид / Die Nibelungen: Siegfried BDRip by SC Kosmos =
Encoded date : UTC 2014-01-15 22:09:33
Writing application : mkvmerge v3.3.0 ('Language') gebaut am Mar 24 2010 14:59:24
Writing library : libebml v0.8.0 + libmatroska v0.9.0
Video
ID : 1
Format : AVC
Format/Info : Advanced Video Codec
Format profile : High@L4.1
Format settings, CABAC : Yes
Format settings, ReFrames : 9 frames
Codec ID : V_MPEG4/ISO/AVC
Duration : 1h 28mn
Bit rate : 6 468 Kbps
Width : 1 280 pixels
Height : 544 pixels
Display aspect ratio : 2.35:1
Frame rate : 24.000 fps
Color space : YUV
Chroma subsampling : 4:2:0
Bit depth : 8 bits
Scan type : Progressive
Bits/(Pixel*Frame) : 0.387
Stream size : 3.93 GiB (90%)
Title : Нибелунги. Часть 1. Зигфрид / Die Nibelungen: Siegfried BDRip by SC Kosmos
Writing library : x264 core 138 r2358 9e941d1
Encoding settings : cabac=1 / ref=9 / deblock=1:-2:-2 / analyse=0x3:0x113 / me=umh / subme=11 / psy=1 / psy_rd=1.00:0.00 / mixed_ref=1 / me_range=32 / chroma_me=1 / trellis=2 / 8x8dct=1 / cqm=0 / deadzone=21,11 / fast_pskip=0 / chroma_qp_offset=-2 / threads=12 / lookahead_threads=1 / sliced_threads=0 / nr=0 / decimate=1 / interlaced=0 / bluray_compat=0 / constrained_intra=0 / bframes=10 / b_pyramid=2 / b_adapt=1 / b_bias=0 / direct=1 / weightb=1 / open_gop=0 / weightp=2 / keyint=240 / keyint_min=24 / scenecut=40 / intra_refresh=0 / rc_lookahead=40 / rc=2pass / mbtree=0 / bitrate=6468 / ratetol=1.0 / qcomp=0.60 / qpmin=0 / qpmax=69 / qpstep=4 / cplxblur=20.0 / qblur=0.5 / vbv_maxrate=50000 / vbv_bufsize=50000 / nal_hrd=none / ip_ratio=1.40 / pb_ratio=1.30 / aq=1:1.00
Language : German
Default : No
Forced : No
Audio #1
ID : 2
Format : AC-3
Format/Info : Audio Coding 3
Mode extension : CM (complete main)
Codec ID : A_AC3
Duration : 1h 28mn
Bit rate mode : Constant
Bit rate : 384 Kbps
Channel(s) : 6 channels
Channel positions : Front: L C R, Side: L R, LFE
Sampling rate : 48.0 KHz
Bit depth : 16 bits
Compression mode : Lossy
Stream size : 244 MiB (5%)
Title : VO
Language : Russian
Default : Yes
Forced : No
Audio #2
ID : 3
Format : AC-3
Format/Info : Audio Coding 3
Mode extension : CM (complete main)
Codec ID : A_AC3
Duration : 1h 28mn
Bit rate mode : Constant
Bit rate : 192 Kbps
Channel(s) : 2 channels
Channel positions : Front: L R
Sampling rate : 48.0 KHz
Bit depth : 16 bits
Compression mode : Lossy
Stream size : 122 MiB (3%)
Language : German
Default : No
Forced : No
Menu
00:00:00.000 : en:00:00:00.000
00:09:07.083 : en:00:09:07.083
00:19:17.708 : en:00:19:17.708
00:30:07.833 : en:00:30:07.833
00:40:09.625 : en:00:40:09.625
00:49:08.250 : en:00:49:08.250
00:59:36.333 : en:00:59:36.333
01:10:10.417 : en:01:10:10.417
01:19:40.208 : en:01:19:40.208

Скриншоты


[Профиль] [ЛС]
Показать сообщения:    

Текущее время: Сегодня 06:27

Часовой пояс: GMT



Вы не можете начинать темы
Вы не можете отвечать на сообщения
Вы не можете редактировать свои сообщения
Вы не можете удалять свои сообщения
Вы не можете голосовать в опросах
Вы не можете прикреплять файлы к сообщениям
Вы не можете скачивать файлы