Не уступить Штейнам / Keeping Up with the Steins (Скотт Маршалл / Scott Marshall) [2006, США, комедия, DVDRip] AVO (Гранкин)

 
Автор Сообщение

TorrentFilm ®

Пол:

Стаж: 2 года

Сообщений: 7741



Награды: Нет

Торрент-статистика

Создавать темы 22-Фев-2016 00:08

[Цитировать]

Не уступить Штейнам / Keeping Up with the Steins
Страна: США
Жанр: Комедия
Год выпуска: 2006
Продолжительность: 1:22:38
Перевод: Авторский (одноголосый закадровый) Е.Гранкин
Cубтитры: нет
Режиссер: Скотт Маршалл / Scott Marshall
В ролях: Дэрил Сабара
Джейми Герц
Джереми Пивен
Шерил Хайнс
Марк Джон Джеффрис
Том Хайнс
Картер Дженкинс
Сандра Тейлор
Ларри Миллер
Миранда Косгров
Описание: История мальчика из еврейской семьи, котoрый накануне обряда бар-мицвы, знаменующего собой вступление в зрелость, прикладываeт всe усилия для того, чтобы пoмирить между собой отца и дeда…
Доп. информация: За звуковую дорожку спасибо Glowamy
Видеоряд отсюда http://torrentfilm.net/forum/viewtopic.php?t=3132792
Сэмпл: https://www.sendspace.com/file/w8rvh5
Качество видео: DVDRip
Формат видео: AVI
Видео: XviD ,704x400 (1.76:1) , 23.976 fps , 1736 kbps avg
Аудио: AC3 , 48 kHz , 192.00 kbps avg , 2/0 (L,R) ch

MediaInfo

Complete name Не уступить Штейнам 2006.avi
Format : AVI
Format/Info : Audio Video Interleave
File size : 1.12 GiB
Duration : 1h 22mn
Overall bit rate : 1 938 Kbps
Writing application : VirtualDubMod 1.5.10.2 (build 2540/release)
Writing library : VirtualDub build 35491/release
Video
ID : 0
Format : MPEG-4 Visual
Format profile : Advanced Simple@L5
Format settings, BVOP : 1
Format settings, QPel : No
Format settings, GMC : No warppoints
Format settings, Matrix : Default (MPEG)
Codec ID : XVID
Codec ID/Hint : XviD
Duration : 1h 22mn
Bit rate : 1 737 Kbps
Width : 704 pixels
Height : 400 pixels
Display aspect ratio : 16:9
Frame rate : 23.976 (23976/1000) fps
Color space : YUV
Chroma subsampling : 4:2:0
Bit depth : 8 bits
Scan type : Progressive
Compression mode : Lossy
Bits/(Pixel*Frame) : 0.257
Stream size : 1.00 GiB (90%)
Writing library : XviD 1.2.1 (UTC 2008-12-04)
Audio
ID : 1
Format : AC-3
Format/Info : Audio Coding 3
Mode extension : CM (complete main)
Format settings, Endianness : Big
Codec ID : 2000
Duration : 1h 22mn
Bit rate mode : Constant
Bit rate : 192 Kbps
Channel(s) : 2 channels
Channel positions : Front: L R
Sampling rate : 48.0 KHz
Frame rate : 31.250 fps (1536 spf)
Compression mode : Lossy
Stream size : 113 MiB (10%)
Alignment : Aligned on interleaves
Interleave, duration : 42 ms (1.00 video frame)
Interleave, preload duratio : 512 ms

Скриншоты

[Профиль] [ЛС]
Кто просматривает тему:

Показать сообщения:    

Текущее время: Сегодня 16:35

Часовой пояс: GMT



Вы не можете начинать темы
Вы не можете отвечать на сообщения
Вы не можете редактировать свои сообщения
Вы не можете удалять свои сообщения
Вы не можете голосовать в опросах
Вы не можете прикреплять файлы к сообщениям
Вы не можете скачивать файлы