Не топтать фашистскому сапогу нашей Родины (Александр Иванов, Иван Иванов-Вано) [1941, мультипликационный фильм-плакат, DVDRip] Eng hardsub

 
Автор Сообщение

TorrentFilm ®

Пол:

Стаж: 2 года

Сообщений: 7741



Награды: Нет

Торрент-статистика

Создавать темы 05-Окт-2015 00:08

[Цитировать]

Не топтать фашистскому сапогу нашей Родины- Страна: СССР
Жанр: мультипликационный фильм-плакат
Продолжительность: 00:02:44
Год выпуска: 1941
Русские субтитры: нет-Режиссёры: Александр Иванов, Иван Иванов-Вано- | Релиз: -Описание: Фашистский зверь шагает по земному шару. Под его сапогами горят страны Европы. Но, стоит ему дойти до СССР, навстречу ему устремляются отряды советской конницы, танки и самолёты. Враг уничтожен.
Агитационный киноплакат был снят ведущими режиссёрами киностудии "Союзмультфильм" в первые месяцы войны.
В фонограмме - фрагмент из музыки Прокофьева к сцене Ледового побоища из фильма "Александр Невский" и маршем бр. Покрасс "Броня крепка, и танки наши быстры..." из фильма "Трактористы" в исполнении ансамбля Александрова.-Качество: DVDRip
Формат: AVI
Видео: 640x480 (1.33:1), 25 fps, XviD MPEG-4 ~2281 kbps avg, 0.30 bit/pixel
Аудио: 48 kHz, AC3 Dolby Digital, 2/0 (L,R) ch, ~224 kbps
Субтитры: английские вшитые (hardsub)

MediaInfo

GeneralComplete name : Не топтать фашистскому сапогу нашей Родины.1941.XviD.AC3-rutracker.aviFormat : AVIFormat/Info : Audio Video InterleaveFile size : 49.5 MiBDuration : 2mn 44sOverall bit rate : 2 516 KbpsMovie name : Не топтать фашистскому сапогу нашей Родины.1941.XviD.AC3-rutrackerWriting application : VirtualDubMod 1.5.10.2 (build 2542/release)Comment : РГ Мультфильмы / Rutracker.org
VideoID : 0Format : MPEG-4 VisualFormat profile : Advanced Simple@L5Format settings, BVOP : 2Format settings, QPel : NoFormat settings, GMC : No warppointsFormat settings, Matrix : CustomCodec ID : XVIDCodec ID/Hint : XviDDuration : 2mn 44sBit rate : 2 281 KbpsWidth : 640 pixelsHeight : 480 pixelsDisplay aspect ratio : 4:3Frame rate : 25.000 fpsColor space : YUVChroma subsampling : 4:2:0Bit depth : 8 bitsScan type : ProgressiveCompression mode : LossyBits/(Pixel*Frame) : 0.297Stream size : 44.9 MiB (91%)Writing library : XviD 65
AudioID : 1Format : AC-3Format/Info : Audio Coding 3Mode extension : CM (complete main)Format settings, Endianness : BigCodec ID : 2000Duration : 2mn 44sBit rate mode : ConstantBit rate : 224 KbpsChannel(s) : 2 channelsChannel positions : Front: L RSampling rate : 48.0 KHzCompression mode : LossyStream size : 4.40 MiB (9%)Alignment : Split accross interleavesInterleave, duration : 40 ms (1.00 video frame)Interleave, preload duration : 500 ms

Скриншоты

[Профиль] [ЛС]
Кто просматривает тему:

Показать сообщения:    

Текущее время: Сегодня 11:51

Часовой пояс: GMT



Вы не можете начинать темы
Вы не можете отвечать на сообщения
Вы не можете редактировать свои сообщения
Вы не можете удалять свои сообщения
Вы не можете голосовать в опросах
Вы не можете прикреплять файлы к сообщениям
Вы не можете скачивать файлы