Не пойман – не вор / Inside Man (Спайк Ли / Spike Lee) [2006, США, криминал, DVB] [Open Matte] Dub

 
Автор Сообщение

TorrentFilm ®

Пол:

Стаж: 2 года

Сообщений: 7741



Награды: Нет

Торрент-статистика

Создавать темы 25-Окт-2015 00:12

[Цитировать]

Не пойман – не вор
Inside Man
Open Matte Страна: США
Жанр: криминал
Год выпуска: 2006
Продолжительность: 01:58:23-Перевод: Профессиональный (дублированный)
Cубтитры: нет
Оригинальная аудиодорожка: нет-Режиссер: Спайк Ли / Spike Lee
В ролях: Клайв Оуэн, Дензел Вашингтон, Джоди Фостер, Уиллем Дефо, Кристофер Пламмер, Чьюител Эджиофор, Кен Леунг, Ким Директор, Карлос Андрес Гомез, Питер Фречетт, Джеймс Рэнсон, Саманта Айверс-Описание: Вы умеете грабить банки? Пока еще нет? Ничего, дело поправимое. Клайв Оуэн вас быстро обучит правильной технологии. Блестяще разработанный план позволит войти в банк через парадный вход и беспрепятственно покинуть здание через те же двери, но уже с добычей. Ведь не зря фильм называется «Не пойман – не вор». Важно только, чтоб на пути не попался этот вездесущий чернокожий полицейский (Дензел Вашингтон). И следите, чтобы под ногами не путались противные шибко умные блондинистые девицы (Джоди Фостер). Пока крутой полицейский Фрезьер решает проблему высовобождения заложников из лап коварного грабителя Долтона, стервятница Мадалина плетет сложную интригу, о смысле которой зрителю весьма трудно будет догадаться-Доп. информация: Open Matte
DVB имеет иное наполнение кадра, чем BD и DVD
Финальные титры ускорены и совмещены с анонсом фильма
-Сэмпл: минута45сек-Качество видео: DVB
Формат видео: MPEG-PS
Видео: MPEG Video, 720x576, 4:3, 25,000 кадра/сек, 2898 Кбит/сек
Аудио: MP2, 48,0 КГц, 192 Кбит/сек, 2 канала (дубляж)

Сравнение с BD

6 скринов

MediaInfo

Общее
Полное имя : Не пойман-не вор.DVB.OpenMatte.mpg
Формат : MPEG-PS
Размер файла : 2,61 Гбайт
Продолжительность : 1 ч. 58 м.
Режим общего битрейта : Переменный
Общий поток : 3152 Кбит/сек
Видео
Идентификатор : 224 (0xE0)
Формат : MPEG Video
Версия формата : Version 2
Профиль формата : Main@Main
Параметр BVOP формата : Да
Параметр матрицы формата : Выборочная
Параметр GOP формата : Variable
Структура изображения : Frame
Продолжительность : 1 ч. 58 м.
Вид битрейта : Переменный
Битрейт : 2898 Кбит/сек
Максимальный битрейт : 15,0 Мбит/сек
Ширина : 720 пикселей
Высота : 576 пикселей
Соотношение сторон : 4:3
Частота кадров : 25,000 кадров/сек
Стандарт вещания : PAL
Цветовое пространство : YUV
Субдискретизация насыщенности : 4:2:0
Битовая глубина : 8 бит
Тип развёртки : Чересстрочная
Порядок развёртки : Верхнее поле первое
Метод сжатия : С потерями
Бит/(Пиксели*Кадры) : 0.279
Временной код первого кадра : 00:00:00:00
Оригинал временного кода : Group of pictures header
GOP, открыто/закрыто : Открыто
GOP, открыто/закрыто на первом кадре : Закрыто
Размер потока : 2,40 Гбайт (92%)
Аудио
Идентификатор : 192 (0xC0)
Формат : MPEG Audio
Версия формата : Version 1
Профиль формата : Layer 2
Продолжительность : 1 ч. 58 м.
Вид битрейта : Постоянный
Битрейт : 192 Кбит/сек
Каналы : 2 канала
Частота : 48,0 КГц
Метод сжатия : С потерями
Размер потока : 163 Мбайт (6%)

Скриншот c названием фильма

[Профиль] [ЛС]
Кто просматривает тему:

Показать сообщения:    

Текущее время: Сегодня 12:10

Часовой пояс: GMT



Вы не можете начинать темы
Вы не можете отвечать на сообщения
Вы не можете редактировать свои сообщения
Вы не можете удалять свои сообщения
Вы не можете голосовать в опросах
Вы не можете прикреплять файлы к сообщениям
Вы не можете скачивать файлы