Не оглядывайся / Ne te retourne pas / Don\'t Look Back (Марина де Ван / Marina de Van) [2009 г., Франция, Италия, триллер, драма, BDRip] Dub (Мосфильм-Мастер)

 
Автор Сообщение

TorrentFilm ®

Пол:

Стаж: 1 год 11 месяцев

Сообщений: 7741



Награды: Нет

Торрент-статистика

Создавать темы 02-Янв-2015 00:00

[Цитировать]

Не оглядывайся / Don't Look Back / Ne te retourne pasГод выпуска: 2009
Страна: Франция | | Италия | | Люксембург | | Бельгия | |
Жанр: триллер, драма
Продолжительность: 01:50:03
Перевод: Профессиональный (полное дублирование) - «Мосфильм-Мастер»
Русские субтитры: нет
Режиссер: Марина де Ван / Marina de Van
Сценарий: Марина де Ван / Marina de Van, Жак Акшоти / Jacques Akchoti
Продюсер: Патрик Собельман / Patrick Sobelman, Кончита Айрольди / Conchita Airoldi, Себастьен Деллуа / Sébastien Delloye, Дино Ди Дионисио / Dino Di Dionisio, Диана Элбаум / Diana Elbaum
Оператор: Доминик Колен / Dominique Colin
Композитор: Люк Роллингер / Luc Rollinger

В ролях: Софи Марсо (Jeanne), Моника Беллуччи (Jeanne), Андреа Ди Стефано (Gianni), Тьерри Нёвик (Teo 2), Бриджитт Катийон (Nadia 1 / Mère italienne), Сильви Гранотье (Nadia 2), Аугусто Дзукки (Fabrizio), Джованни Франзони (Enrico), Виттория Менеганти (Enfant brune 11 ans), Франческа Мелуччи (Enfant blonde 9 ans), Эдриан де Ван (Le psychiatre), Серана Д’Амато (Donatella)
Дублёры: Ольга Голованова (Jeanne; Jeanne), Ольга Зубкова (Nadia 1 / Mère italienne), Александра Остроухова (Enfant brune 11 ans)-Бюджет: €13 000 000
Сборы в России: $870 515
Мировая премьера: 16 мая 2009
Релиз на DVD: 19 ноября 2009, «Columbia/Sony»
Релиз на Blu-ray: 21 января 2010, «Columbia/Sony»-Описание: Жанна - писательница, замужем, имеет двоих детей. Она начинает замечать тревожащие её изменения в доме. Её тело начинает меняться. Но никто вокруг неё, кажется, этого не замечает. Семья списывает страхи Жанны на стресс, связанный с выходом её новой книги, но сама она понимает, что что-то другое, более глубокое и волнующее имеет место быть.
Увиденное на фотографии побуждает Жанну отправиться в Италию на поиски одной женщины. И там, преобразовавшись в другую женщину, РозаМарию, она наконец-то поймёт странный секрет её истинной сущности.- Рейтинг
kinopoisk.ru: 6.495 (6541)
imdb.com: 5.90 (4632)
-Качество: BDRip [Исходник: Blu-ray Disc 1080p]
Формат: AVI ///СОВМЕСТИМО С БЫТОВЫМИ ПЛЕЕРАМИ///
Размер : 1/3 DVD-R
Видео: 704x304 (2.32:1), 23.976 fps, XviD build 66 ~1501 kbps avg, 0.29 bit/pixel

//SAMPLE//

Аудио: 48 kHz, AC3 Dolby Digital, 3/2 (L,C,R,l,r) + LFE ch, ~384 kbps - RUS - Dub [Мосфильм-Мастер]

Скриншоты


-
MIКод:General
Complete name : H:\!Allfilms\Ne.Oglyadyvaisya.2009.XviD.BDRip.avi
Format : AVI
Format/Info : Audio Video Interleave
File size : 1.46 GiB
Duration : 1h 50mn
Overall bit rate : 1 895 Kbps
Movie name : Не оглядывайся / Don't Look Back / Ne te retourne pas [2009] BDRip
Director : Юpист
Genre : драма, триллер
Writing application : VirtualDubMod 1.5.10.3 | www.virtualdub-fr.org || (build 2550/release)
Writing library : VirtualDubMod build 2550/release
Copyright : tru
Video
ID : 0
Format : MPEG-4 Visual
Format profile : Advanced Simple@L5
Format settings, BVOP : 1
Format settings, QPel : No
Format settings, GMC : No warppoints
Format settings, Matrix : Custom
Codec ID : XVID
Codec ID/Hint : XviD
Duration : 1h 50mn
Bit rate : 1 502 Kbps
Width : 704 pixels
Height : 304 pixels
Display aspect ratio : 2.35:1
Frame rate : 23.976 fps
Color space : YUV
Chroma subsampling : 4:2:0
Bit depth : 8 bits
Scan type : Progressive
Compression mode : Lossy
Bits/(Pixel*Frame) : 0.293
Stream size : 1.15 GiB (79%)
Writing library : XviD 66
Audio
ID : 1
Format : AC-3
Format/Info : Audio Coding 3
Mode extension : CM (complete main)
Format settings, Endianness : Big
Codec ID : 2000
Duration : 1h 50mn
Bit rate mode : Constant
Bit rate : 384 Kbps
Channel(s) : 6 channels
Channel positions : Front: L C R, Side: L R, LFE
Sampling rate : 48.0 KHz
Bit depth : 16 bits
Compression mode : Lossy
Stream size : 302 MiB (20%)
Alignment : Split accross interleaves
Interleave, duration : 42 ms (1.00 video frame)
Interleave, preload duratio : 500 ms
Title : RUS - Dub [Мосфильм-Мастер]

-

Сравнение

http://screenshotcomparison.com/comparison/105936/picture:0 - http://torrentfilm.net/forum/viewtopic.php?t=2418215 - шарп (DVD качал), Format settings, BVOP : 3
-
[Профиль] [ЛС]

Создавать темы 06-Авг-2015 22:50 (спустя 7 месяцев 4 дня)

Топик был перенесен из форума Фильмы до 2014 года в форум Фильмы до 2012 года
sergej644
 

Создавать темы 12-Июн-2016 08:48 (спустя 1 год 5 месяцев)

Топик был перенесен из форума Фильмы 2011 года в форум Фильмы 2009 года
Russian Mafia
 
Кто просматривает тему:

Показать сообщения:    

Текущее время: Сегодня 18:19

Часовой пояс: GMT



Вы не можете начинать темы
Вы не можете отвечать на сообщения
Вы не можете редактировать свои сообщения
Вы не можете удалять свои сообщения
Вы не можете голосовать в опросах
Вы не можете прикреплять файлы к сообщениям
Вы не можете скачивать файлы