Не может быть! (1975) DVDRip-AVC от ExKinoRay

 
Автор Сообщение

sergej644 ®

Пол:

Стаж: 4 года 11 месяцев

Сообщений: 6046

Откуда: Soviet Union



Награды: Нет

Торрент-статистика

Создавать темы 02-Сен-2015 15:05

[Цитировать]

Информация о фильме
Название: Не может быть!
Год выхода: 1975
Жанр: Комедия, экранизация
Режиссер: Леонид Гайдай
В ролях: Нина Гребешкова, Михаил Пуговкин, Вячеслав Невинный, Михаил Светин, Раднэр Муратов, Лев Поляков, Виктор Уральский, Олег Даль, Светлана Крючкова, Михаил Кокшенов, Евгений Жариков, Наталья Селезнёва, Лариса Ерёмина, Елена Вольская, Леонид Куравлёв, Савелий Крамаров, Георгий Вицин, Валентина Теличкина, Людмила Шагалова, Светлана Харитонова, Наталья Крачковская, Сергей Филиппов, Игорь Ясулович, Эве Киви, Готлиб Ронинсон, Нина Крачковская
О фильме: Фильм включает три новеллы по рассказам Михаила Зощенко: "Преступление и наказание", "Забавное приключение" и "Свадебное происшествие". События происходят в конце 1920-х - начале 1930-х годов, однако явления, которые высмеивает фильм - тупость, пьянство, стремление к наживе, легкомысленное отношение к жизни - увы, и сегодня существуют благополучно и повсеместно... Экранизация по произведению: Михаил Зощенко.
Страна: СССР, киностудия Мосфильм
Продолжительность: 01:31:39
Перевод: не требуется
Файл
Кодек: MKV
Качество: DVDRip-AVC
Видео: MPEG-4 AVC, ~ 2850 Кбит/с, 714x556@761x556
Звук: Русский (AC3, 6 ch, 448 Кбит/с), (АС3, 1 ch, 224 Кбит/с)

Скриншоты

Медиа-Инфо

raw [info]: 714x556p 16:15 @ 25/1 fps (cfr)
x264 [info]: using SAR=16/15
x264 [info]: using cpu capabilities: MMX2 SSE2Fast SSSE3 SSE4.2 AVX
x264 [info]: profile High, level 4.1
x264 [info]: frame I:941 Avg QP:19.03 size: 77461
x264 [info]: frame P:36141 Avg QP:22.61 size: 31153
x264 [info]: frame B:100393 Avg QP:24.34 size: 7574
=====================================================================================================
Общее
Уникальный идентификатор : 198294008099962817453519907452386390810 (0x952E096BAC9A46569970A5283225B31A)
Полное имя : R:МОИ РИПЫНе может быть_1975-DVDRip-AVC.mkv
Формат : Matroska
Версия формата : Version 2
Размер файла : 2,26 Гбайт
Продолжительность : 1 ч. 31 м.
Общий поток : 3524 Кбит/сек
Дата кодирования : UTC 2015-09-01 18:37:20
Программа кодирования : mkvmerge v5.8.0 ('No Sleep / Pillow') built on Sep 2 2012 15:37:04
Библиотека кодирования : libebml v1.2.3 + libmatroska v1.3.0
Видео
Идентификатор : 1
Формат : AVC
Формат/Информация : Advanced Video Codec
Профиль формата : High@L4.1
Параметр CABAC формата : Да
Параметр ReFrames формата : 15 кадров
Идентификатор кодека : V_MPEG4/ISO/AVC
Продолжительность : 1 ч. 31 м.
Битрейт : 2850 Кбит/сек
Ширина : 714 пикселей
Высота : 556 пикселей
Соотношение сторон : 4:3
Соотношение сторон в оригинале : 1,370
Режим частоты кадров : Постоянный
Частота кадров : 25,000 кадров/сек
Цветовое пространство : YUV
Субдискретизация насыщенности : 4:2:0
Битовая глубина : 8 бит
Тип развёртки : Прогрессивная
Бит/(Пиксели*Кадры) : 0.287
Размер потока : 1,78 Гбайт (79%)
Библиотека кодирования : x264 core 146 r2538 121396c
Настройки программы : cabac=1 / ref=15 / deblock=1:-2:-2 / analyse=0x3:0x133 / me=umh / subme=10 / psy=1 / psy_rd=0.80:0.05 / mixed_ref=1 / me_range=32 / chroma_me=1 / trellis=2 / 8x8dct=1 / cqm=0 / deadzone=21,11 / fast_pskip=0 / chroma_qp_offset=-3 / threads=12 / lookahead_threads=2 / sliced_threads=0 / nr=0 / decimate=0 / interlaced=0 / bluray_compat=0 / constrained_intra=0 / bframes=9 / b_pyramid=2 / b_adapt=2 / b_bias=0 / direct=3 / weightb=1 / open_gop=0 / weightp=2 / keyint=250 / keyint_min=25 / scenecut=40 / intra_refresh=0 / rc=2pass / mbtree=0 / bitrate=2850 / ratetol=1.0 / qcomp=0.65 / qpmin=0 / qpmax=45 / qpstep=4 / cplxblur=20.0 / qblur=0.5 / ip_ratio=1.40 / pb_ratio=1.30 / aq=1:0.90
Язык : English
Default : Да
Forced : Нет
Основные цвета : BT.601 PAL
Характеристики трансфера : BT.470 System B, BT.470 System G
Коэффициенты матрицы : BT.601
Аудио #1
Идентификатор : 2
Формат : AC-3
Формат/Информация : Audio Coding 3
Расширение режима : CM (complete main)
Параметр Endianness формата : Big
Идентификатор кодека : A_AC3
Продолжительность : 1 ч. 31 м.
Вид битрейта : Постоянный
Битрейт : 448 Кбит/сек
Каналы : 6 каналов
Расположение каналов : Front: L C R, Side: L R, LFE
Частота : 48,0 КГц
Битовая глубина : 16 бит
Метод сжатия : С потерями
Размер потока : 294 Мбайт (13%)
Язык : Russian
Default : Да
Forced : Нет
Аудио #2
Идентификатор : 3
Формат : AC-3
Формат/Информация : Audio Coding 3
Расширение режима : CM (complete main)
Параметр Endianness формата : Big
Идентификатор кодека : A_AC3
Продолжительность : 1 ч. 31 м.
Вид битрейта : Постоянный
Битрейт : 224 Кбит/сек
Каналы : 1 канал
Расположение каналов : Front: C
Частота : 48,0 КГц
Битовая глубина : 16 бит
Метод сжатия : С потерями
Размер потока : 147 Мбайт (6%)
Язык : Russian
Default : Нет
Forced : Нет
Релиз от:
Автор релиза:
[Профиль] [ЛС]
Кто просматривает тему:

Показать сообщения:    

Текущее время: Сегодня 07:13

Часовой пояс: GMT



Вы не можете начинать темы
Вы не можете отвечать на сообщения
Вы не можете редактировать свои сообщения
Вы не можете удалять свои сообщения
Вы не можете голосовать в опросах
Вы не можете прикреплять файлы к сообщениям
Вы не можете скачивать файлы