Не может быть! (Леонид Гайдай)[1975, комедия, DVDRip]

 
Автор Сообщение

sergej644 ®

Пол:

Стаж: 4 года 11 месяцев

Сообщений: 6043

Откуда: Soviet Union



Награды: Нет

Торрент-статистика

Создавать темы 11-Июл-2015 20:45

[Цитировать]

--Не может быть! (1975) DVDRip Год выпуска: 1975
Страна: СССР
Жанр: мелодрама, комедия
Продолжительность: 01:31:39
Перевод: Не требуется
Режиссер: Леонид Гайдай
Сценарий: Владлен Бахнов, Леонид Гайдай, Михаил Зощенко
Продюсер: Эрик Вайсберг
Оператор: Сергей Полуянов
Композитор: Александр Зацепин
В ролях:
Михаил Пуговкин (завмаг Горбушкин (новелла «Преступление и наказание»)), Нина Гребешкова (Анна, жена Горбушкина (новелла «Преступление и наказание»)), Вячеслав Невинный (брат жены Горбушкина (новелла «Преступление и наказание»)), Михаил Светин (Виталий Борисович, сосед Горбушкина (новелла «Преступление и наказание»)), Наталья Селезнёва (Татьяна, жена Анатолия (новелла «Забавное приключение»)), Олег Даль (Анатолий Барыгин-Амурский, муж Татьяны (новелла «Забавное приключение»)), Светлана Крючкова (Зинаида, жена Николая (новелла «Забавное приключение»)), Евгений Жариков (Николай, муж Зинаиды (новелла «Забавное приключение»)), Лариса Еремина (Софья, подруга Зинаиды (новелла «Забавное приключение»)), Михаил Кокшенов (сосед Софьи (новелла «Забавное приключение»)), Леонид Куравлёв (Владимир Завитушкин, жених (новелла «Свадебное происшествие»)), Валентина Теличкина (Катерина, невеста (новелла «Свадебное происшествие»))-Мировая премьера: 23 октября 1975
Релиз на DVD: 11 января 2011, «Парадиз Медиа»-Описание:
Фильм включает три новеллы о негативных явлениях провинциальной жизни молодой страны Советов: тупости, пьянстве, стяжательстве, бездуховности - всем том, что и сейчас существует благополучно и повсеместно.-
Качество: DVDRip |
Формат: AVI
Исходник: DVD5
Видео: XviD; 704x512 (1.375); 1810 Kbps; 25 fps; 0,201 bpp
Аудио: AC3; 448 Kbps; CBR; 6 ch
-

Знаете ли Вы, что...

Занимает по посещаемости 46-е место среди отечественных фильмов за всю историю советского кинопроката.

MI

General
Complete name                  : E:ФильмыNe_Mojet_bit_1975_DVDRip_[youtracker].avi
Format                         : AVI
Format/Info                    : Audio Video Interleave
File size                      : 1.45 GiB
Duration                       : 1h 31mn
Overall bit rate               : 2 268 Kbps
Writing application            : VirtualDubMod 1.5.10.3 | www.virtualdub-fr.org || (build 2550/release)
Writing library                : VirtualDubMod build 2550/release
Video
ID                             : 0
Format                         : MPEG-4 Visual
Format profile                 : Advanced Simple@L5
Format settings, BVOP          : 2
Format settings, QPel          : No
Format settings, GMC           : No warppoints
Format settings, Matrix        : Custom
Codec ID                       : XVID
Codec ID/Hint                  : XviD
Duration                       : 1h 31mn
Bit rate                       : 1 810 Kbps
Width                          : 704 pixels
Height                         : 512 pixels
Display aspect ratio           : 1.375
Frame rate                     : 25.000 fps
Color space                    : YUV
Chroma subsampling             : 4:2:0
Bit depth                      : 8 bits
Scan type                      : Progressive
Compression mode               : Lossy
Bits/(Pixel*Frame)             : 0.201
Stream size                    : 1.16 GiB (80%)
Writing library                : XviD 65
Audio
ID                             : 1
Format                         : AC-3
Format/Info                    : Audio Coding 3
Mode extension                 : CM (complete main)
Codec ID                       : 2000
Duration                       : 1h 31mn
Bit rate mode                  : Constant
Bit rate                       : 448 Kbps
Channel(s)                     : 6 channels
Channel positions              : Front: L C R, Side: L R, LFE
Sampling rate                  : 48.0 KHz
Bit depth                      : 16 bits
Compression mode               : Lossy
Stream size                    : 294 MiB (20%)
Alignment                      : Split accross interleaves
Interleave, duration           : 40 ms (1.00 video frame)
Interleave, preload duration   : 500 ms

Скриншоты

--


Последний раз редактировалось: sergej644 (2015-08-07 19:07), всего редактировалось 1 раз
[Профиль] [ЛС]
Кто просматривает тему:

Показать сообщения:    

Текущее время: Сегодня 04:21

Часовой пояс: GMT



Вы не можете начинать темы
Вы не можете отвечать на сообщения
Вы не можете редактировать свои сообщения
Вы не можете удалять свои сообщения
Вы не можете голосовать в опросах
Вы не можете прикреплять файлы к сообщениям
Вы не можете скачивать файлы