Не может быть, Джоуз / No Way Jose (Адам Голдберг / Adam Goldberg) [2015, США, Комедия, WEB-DLRip] MVO (iTunes)

 
Автор Сообщение

TorrentFilm ®

Пол:

Стаж: 2 года

Сообщений: 7741



Награды: Нет

Торрент-статистика

Создавать темы 14-Июл-2015 00:10

[Цитировать]

Не может быть, Джоуз / No Way Jose-«A coming of middle age story»- Страна: США
Жанр: Комедия
Год выпуска: 2015
Продолжительность: 01:37:52-Перевод: Профессиональный (многоголосый закадровый) iTunes
Cубтитры: нет
Оригинальная аудиодорожка: нет-Режиссер: Адам Голдберг / Adam Goldberg-В ролях: Эмили Осмент, Гиллиан Джейкобс, Адам Голдберг, Брендан Хайнс, Ана О’Райли, Анна Белкнап, Пэт Хили, Кит Уиллси, Эрик Сигел, Луи Иаккарино-Описание: Адам Голдберг исполнит роль Хосе Стерна, который играет в непопулярной индии-группе, но считает свое занятие очень серьезным. Он пренебрегает отношениями со своей женой, и в конечном итоге это приводит к разрыву. А после расставания он вдруг понимает, насколько обворожительной и интересной была его женщина.-Сэмпл: https://yadi.sk/i/BsgBuGXLhhSHJ
Качество видео: WEB-DLRip
Формат видео: AVI-Видео: MPEG-4 Visual at 1608 Кбит/сек, 720 x 304 (2.368) at 23.976 fps
Аудио: AC-3 at 384 Кбит/сек, 6 каналов, 48,0 КГц

MediaInfo

Общее
Полное имя : F:\Rutracker-Razdachi\Ne.mozhet.bytj.Dzhoyz.2015.P.WEBDLRip.avi
Формат : AVI
Формат/Информация : Audio Video Interleave
Размер файла : 1,37 Гбайт
Продолжительность : 1 ч. 37 м.
Общий поток : 2001 Кбит/сек
Программа кодирования : VirtualDubMod 1.5.10.3 | www.virtualdub-fr.org || (build 2550/release)
Библиотека кодирования : VirtualDubMod build 2550/release
Видео
Идентификатор : 0
Формат : MPEG-4 Visual
Профиль формата : Advanced Simple@L5
Параметр BVOP формата : 2
Параметр QPel формата : Нет
Параметр GMC формата : Без точки перехода
Параметр матрицы формата : Default (MPEG)
Идентификатор кодека : XVID
Идентификатор кодека/Подсказка : XviD
Продолжительность : 1 ч. 37 м.
Битрейт : 1608 Кбит/сек
Ширина : 720 пикселей
Высота : 304 пикселя
Соотношение сторон : 2,35:1
Частота кадров : 23,976 кадра/сек
Цветовое пространство : YUV
Субдискретизация насыщенности : 4:2:0
Битовая глубина : 8 бит
Тип развёртки : Прогрессивная
Метод сжатия : С потерями
Бит/(Пиксели*Кадры) : 0.306
Размер потока : 1,10 Гбайт (80%)
Библиотека кодирования : XviD 1.2.1 (UTC 2008-12-04)
Аудио
Идентификатор : 1
Формат : AC-3
Формат/Информация : Audio Coding 3
Расширение режима : CM (complete main)
Параметр Endianness формата : Big
Идентификатор кодека : 2000
Продолжительность : 1 ч. 37 м.
Вид битрейта : Постоянный
Битрейт : 384 Кбит/сек
Каналы : 6 каналов
Расположение каналов : Front: L C R, Side: L R, LFE
Частота : 48,0 КГц
Битовая глубина : 16 бит
Метод сжатия : С потерями
Размер потока : 269 Мбайт (19%)
Выравнивание : Разделение по промежуткам
Продолжительность промежутка : 42 мс. (1,00 видеокадр)
Время предзагрузки промежутка : 500 мс.

Скриншоты

[Профиль] [ЛС]
Кто просматривает тему:

Показать сообщения:    

Текущее время: Сегодня 20:47

Часовой пояс: GMT



Вы не можете начинать темы
Вы не можете отвечать на сообщения
Вы не можете редактировать свои сообщения
Вы не можете удалять свои сообщения
Вы не можете голосовать в опросах
Вы не можете прикреплять файлы к сообщениям
Вы не можете скачивать файлы