Не зови волков / Не кричи "Волки!" / Never Cry Wolf (1983) WEB-DL 1080p | D

 
Автор Сообщение

Russian Mafia ®

Пол:

Стаж: 1 год 8 месяцев

Сообщений: 4257



Награды: 10 (Подробнее)

Top Releaser 5 (Количество: 1) Mega Seeder 2 (Количество: 1) Mega Seeder 1 (Количество: 1)
Торрент-статистика

Создавать темы 13-Авг-2016 10:54

[Цитировать]

Информация о фильме
Название: Не зови волков / Не кричи "Волки!"
Оригинальное название: Never Cry Wolf
Год выхода: 1983
Жанр: драма, приключения
Режиссер: Кэррол Бэллард
В ролях: Чарльз Мартин Смит, Брайан Деннехи, Захари Иттимангнак, Самсон Джора, Хью Уэбстер, Марта Иттимангнак, Том Дальгрен, Уолкер Стюарт
О фильме:
Фантастической красоты виды предстают зрителям этого фильма об ученом, который отправился на крайний север изучать повадки диких волков. Здесь есть смешное, много опасного, но главное — это величие природы, на фоне которого происходит перерождение человека.

Страна: США
Студия: Amarok Productions Ltd., Walt Disney Pictures
Продолжительность: 01:45:25
Перевод: Профессиональный (дублированный) СВ-Дубль по заказу ВГТРК
Файл
Формат: Matroska
Видео: 1920x1036 at 23.976 fps, MPEG-4 AVC, ~5200 kbps avg
Аудио#1: Russian: 48 kHz, AC3 Dolby Digital, 2/0 (L,R) ch, ~192.00 kbps avg |Дубляж, СВ-Дубль по заказу ВГТРК|
Аудио#2: English: 48 kHz, AC3 Dolby Digital, 3/2 (L,C,R,l,r) + LFE ch, ~384.00 kbps avg
Субтитры: Russian, English
***Сохранены и подписаны оригинальные главы.
***Релиз - Pigy.

MI

Общее
Уникальный идентификатор : 199839428586938952177495402506803507265 (0x9657AC888B0731348934C0F320007041)
Полное имя : Never Cry Wolf 1983 WEB-DL 1080p.mkv
Формат : Matroska
Версия формата : Version 4 / Version 2
Размер файла : 4,33 Гбайт
Продолжительность : 1 ч. 45 м.
Общий поток : 5886 Кбит/сек
Дата кодирования : UTC 2015-11-27 10:57:22
Программа кодирования : mkvmerge v6.1.0 ('Old Devil') built on Mar 2 2013 14:32:37
Библиотека кодирования : libebml v1.3.0 + libmatroska v1.4.0
Видео
Идентификатор : 1
Формат : AVC
Формат/Информация : Advanced Video Codec
Профиль формата : High@L4
Параметр CABAC формата : Да
Параметр ReFrames формата : 4 кадра
Идентификатор кодека : V_MPEG4/ISO/AVC
Продолжительность : 1 ч. 45 м.
Битрейт : 5193 Кбит/сек
Ширина : 1920 пикселей
Высота : 1036 пикселей
Соотношение сторон : 1,85:1
Режим частоты кадров : Постоянный
Частота кадров : 23,976 кадра/сек
Цветовое пространство : YUV
Субдискретизация насыщенности : 4:2:0
Битовая глубина : 8 бит
Тип развёртки : Прогрессивная
Бит/(Пиксели*Кадры) : 0.109
Размер потока : 3,82 Гбайт (88%)
Язык : English
Default : Да
Forced : Нет
Цветовой диапазон : Limited
Основные цвета : BT.709
Характеристики трансфера : BT.709
Коэффициенты матрицы : BT.709
Аудио #1
Идентификатор : 2
Формат : AC-3
Формат/Информация : Audio Coding 3
Расширение режима : CM (complete main)
Параметр Endianness формата : Big
Идентификатор кодека : A_AC3
Продолжительность : 1 ч. 45 м.
Вид битрейта : Постоянный
Битрейт : 192 Кбит/сек
Каналы : 2 канала
Расположение каналов : Front: L R
Частота : 48,0 КГц
Метод сжатия : С потерями
Размер потока : 145 Мбайт (3%)
Язык : Russian
Default : Да
Forced : Нет
Аудио #2
Идентификатор : 3
Формат : AC-3
Формат/Информация : Audio Coding 3
Расширение режима : CM (complete main)
Параметр Endianness формата : Big
Идентификатор кодека : A_AC3
Продолжительность : 1 ч. 45 м.
Вид битрейта : Постоянный
Битрейт : 384 Кбит/сек
Каналы : 6 каналов
Расположение каналов : Front: L C R, Side: L R, LFE
Частота : 48,0 КГц
Метод сжатия : С потерями
Размер потока : 290 Мбайт (7%)
Язык : English
Default : Нет
Forced : Нет
Текст #1
Идентификатор : 4
Формат : UTF-8
Идентификатор кодека : S_TEXT/UTF8
Идентификатор кодека/Информация : UTF-8 Plain Text
Язык : Russian
Default : Нет
Forced : Нет
Текст #2
Идентификатор : 5
Формат : UTF-8
Идентификатор кодека : S_TEXT/UTF8
Идентификатор кодека/Информация : UTF-8 Plain Text
Язык : English
Default : Нет
Forced : Нет
Меню
00:00:00.000 : en:MAIN TITLE
00:15:57.000 : en:THE ARRIVAL
00:25:28.000 : en:NEW NEIGHBOR
00:34:22.000 : en:IN PURSUIT OF PHANTOMS
00:43:38.000 : en:GEORGE AND ANGELINE
00:53:27.000 : en:COMPANY
01:11:02.000 : en:FEEL WONDER
01:18:23.000 : en:NAKED PREY
01:26:20.000 : en:HUNTING PARTY
01:36:40.000 : en:SURVIVAL OF THE FITTEST
01:39:04.000 : en:TURNING AWAY
01:43:03.000 : en:END CREDITS

Скриншоты

[Профиль] [ЛС]
Кто просматривает тему:

Показать сообщения:    

Текущее время: Сегодня 21:33

Часовой пояс: GMT



Вы не можете начинать темы
Вы не можете отвечать на сообщения
Вы не можете редактировать свои сообщения
Вы не можете удалять свои сообщения
Вы не можете голосовать в опросах
Вы не можете прикреплять файлы к сообщениям
Вы не можете скачивать файлы