Не забывай / Per non dimenticarti (Мариантониа Авати / Mariantonia Avati) [2006, Италия, драма, DVB-AVC] MVO (Kino Polska)

 
Автор Сообщение

TorrentFilm ®

Пол:

Стаж: 2 года

Сообщений: 7741



Награды: Нет

Торрент-статистика

Создавать темы 08-Июл-2015 00:06

[Цитировать]

Не забывай
Per non dimenticarti- Страна: Италия
Жанр: драма
Год выпуска: 2006
Продолжительность: 01:35:27Перевод: Профессиональный (многоголосый закадровый) по заказу Kino Polska на производственно-технической базе Студии "Акцент"
Cубтитры: нет
Режиссер: Мариантониа Авати / Mariantonia Avati
В ролях: Анита Каприоли / Anita Caprioli (Nina), Франческа Антонелли / Francesca Antonelli (Mariella), Этторе Басси / Ettore Bassi (Giordano), Лука Бьяджини / Luca Biagini (Vito), Массимо Бонетти / Massimo Bonetti (Guido), Моника Червини / Monica Cervini (Piera), Алессандра Костанцо / Alessandra Costanzo (Celestina)
Описание: События 1946-47 годов в послевоенной Италии. Война уже полтора года как закончилась, но ее отзвуки все еще слышны. На девятом месяце беременности Нину положили в родильный дом в Риме, где она познакомилась с судьбами многих женщин и услышала рассказы об их жизни…
Доп. информация: Filmbox Arthouse IPTV
Участник Mar del Plata Film Festival 2007.

Качество видео: DVB-AVC
Формат видео: MKV
Видео: AVC (H.264), 720x576@1024x576 (16:9), 25 fps, ~733 kbps avg, 0.071 bit/pixel
Аудио: MPEG Audio 2, 2 ch, 48 kHz, ~128.00 kbps avg

MediaInfo

ОбщееУникальный идентификатор : 212610241756313676343303947087212240698 (0x9FF33E3C569AD96CA3DD627A5248DF3A)Полное имя : F:\My Torrents 3\[apreder]Per_non_dimenticarti(2006)DVB.mkvФормат : MatroskaВерсия формата : Version 2Размер файла : 599 МбайтПродолжительность : 1 ч. 35 м.Общий поток : 878 Кбит/секДата кодирования : UTC 2015-06-26 17:10:44Программа кодирования : mkvmerge v8.0.0 ('Til The Day That I Die') 64bitБиблиотека кодирования : libebml v1.3.1 + libmatroska v1.4.2
ВидеоИдентификатор : 2Формат : AVCФормат/Информация : Advanced Video CodecПрофиль формата : Main@L3Параметр CABAC формата : ДаПараметр ReFrames формата : 3 кадраИдентификатор кодека : V_MPEG4/ISO/AVCПродолжительность : 1 ч. 35 м.Битрейт : 733 Кбит/секШирина : 720 пикселейВысота : 576 пикселейСоотношение сторон : 16:9Соотношение сторон в оригинале : 16:9Режим частоты кадров : ПостоянныйЧастота кадров : 25,000 кадров/секСтандарт вещания : ComponentЦветовое пространство : YUVСубдискретизация насыщенности : 4:2:0Битовая глубина : 8 битТип развёртки : ПрогрессивнаяПорядок развёртки : Верхнее поле первоеБит/(Пиксели*Кадры) : 0.071Размер потока : 500 Мбайт (83%)Default : ДаForced : Нетcolour_range : LimitedОсновные цвета : BT.601 PALХарактеристики трансфера : BT.470 System B, BT.470 System GКоэффициенты матрицы : BT.601
АудиоИдентификатор : 1Формат : MPEG AudioВерсия формата : Version 1Профиль формата : Layer 2Идентификатор кодека : A_MPEG/L2Идентификатор кодека/Подсказка : MP2Продолжительность : 1 ч. 35 м.Вид битрейта : ПостоянныйБитрейт : 128 Кбит/секКаналы : 2 каналаЧастота : 48,0 КГцМетод сжатия : С потерямиЗадержка видео : -6 мс.Размер потока : 87,4 Мбайт (15%)Язык : RussianDefault : ДаForced : Нет

Скриншот c названием фильма

Скриншоты


Резервные скриншоты


-[2'386]
[Профиль] [ЛС]

Создавать темы 06-Авг-2015 22:25 (спустя 29 дней)

Топик был перенесен из форума Фильмы до 2014 года в форум Фильмы до 2012 года
sergej644
 
Кто просматривает тему:

Показать сообщения:    

Текущее время: Сегодня 14:29

Часовой пояс: GMT



Вы не можете начинать темы
Вы не можете отвечать на сообщения
Вы не можете редактировать свои сообщения
Вы не можете удалять свои сообщения
Вы не можете голосовать в опросах
Вы не можете прикреплять файлы к сообщениям
Вы не можете скачивать файлы