Не жизнь, а праздник [2014, Документальный, HDTV 1080i] [Россия HD]

 
Автор Сообщение

TorrentFilm ®

Пол:

Стаж: 2 года

Сообщений: 7741



Награды: Нет

Торрент-статистика

Создавать темы 30-Дек-2014 00:00

[Цитировать]

Не жизнь, а праздник
Год выпуска: 2014
Страна: Россия
Жанр: Документальный
Продолжительность: 00:45:00 серия
Перевод: Не требуется
Описание: Еще из кино про Зиту и Гиту все знают, что индийское общество поделено на касты, в нем много вражды, правил и ритуалов. Однако любые границы стираются на весеннем празднике Холи. Это день повального примирения и одежды, которую нельзя отстирать, поскольку орудие дружбы — цветные порошки. За этим грязным весельем мы отправимся в индийский штат Раджастан.
Тип релиза: HDTV 1080i
Контейнер: TS
Видео: H264; 1920x1080 (16:9); 25.000 fps; ~14.6 Mbps
Аудио: MPEG Audio 48000Hz stereo 192 Кбит/сек

MediaInfo

J:\Россия HD\Не жизнь, а праздник_DVB by kuzmichm2196\01. Не жизнь, а праздник. Филипины.ts General #1 ID : 1 (0x1) Complete name : J:\Россия HD\Не жизнь, а праздник_DVB by kuzmichm2196\01. Не жизнь, а праздник. Филипины.ts Format : MPEG-TS File size : 4.83 GiB Duration : 44mn 34s Overall bit rate : 15.5 Mbps Video #2292 ID : 2292 (0x8F4) Menu ID : 1 (0x1) Format : AVC Format/Info : Advanced Video Codec Format profile : Main@L4.0 Format settings, CABAC : Yes Format settings, ReFrames : 3 frames Codec ID : 27 Duration : 44mn 34s Bit rate : 14.6 Mbps Width : 1 920 pixels Height : 1 080 pixels Display aspect ratio : 16:9 Frame rate : 25.000 fps Standard : Component Color space : YUV Chroma subsampling : 4:2:0 Bit depth : 8 bits Scan type : Interlaced Scan order : Top Field First Bits/(Pixel*Frame) : 0.281 Stream size : 4.53 GiB (94%) Color primaries : BT.709-5, BT.1361, IEC 61966-2-4, SMPTE RP177 Transfer characteristics : BT.709-5, BT.1361 Matrix coefficients : BT.709-5, BT.1361, IEC 61966-2-4 709, SMPTE RP177 Audio #2295 ID : 2295 (0x8F7) Menu ID : 1 (0x1) Format : MPEG Audio Format version : Version 1 Format profile : Layer 2 Codec ID : 3 Duration : 44mn 34s Bit rate mode : Constant Bit rate : 192 Kbps Channel(s) : 2 channels Sampling rate : 48.0 KHz Compression mode : Lossy Stream size : 61.2 MiB (1%) Language : Russian

Скриншоты

[Профиль] [ЛС]
Кто просматривает тему:

Показать сообщения:    

Текущее время: Сегодня 13:04

Часовой пояс: GMT



Вы не можете начинать темы
Вы не можете отвечать на сообщения
Вы не можете редактировать свои сообщения
Вы не можете удалять свои сообщения
Вы не можете голосовать в опросах
Вы не можете прикреплять файлы к сообщениям
Вы не можете скачивать файлы