Не дарите мне куйню! / Don\'t give me presents that blow! (Дмитрий Волошин / Dmitri Voloshin) [2012, мультфильм, WEBRip]

 
Автор Сообщение

TorrentFilm ®

Пол:

Стаж: 2 года

Сообщений: 7741



Награды: Нет

Торрент-статистика

Создавать темы 04-Янв-2016 00:04

[Цитировать]

Не дарите мне куйню! / Don't give me presents that blow!
Страна: Молдавия
Жанр: мультфильм
Продолжительность: 00:01:07
Год выпуска: 2012
Перевод: не требуется
Русские субтитры: нет
Режиссёр: Дмитрий Волошин / Dmitri Voloshin
Музыка: Zdob si Zdub
Описание: Смерть тоже хочет получить подарок от Санты, но пытается сделать это нечестным способом.
Доп. информация: Другие мультфильмы с этим персонажем:
Цыган - http://torrentfilm.net/forum/viewtopic.php?t=1531585
Джи - http://torrentfilm.net/forum/viewtopic.php?t=4350100
Качество: WEBRip
Формат: AVI
Видео: 1926 kbps, 720х400 (16:9), 25.000 fps, MPEG-4 Visual (XviD)
Аудио: 160 kbps, 48.0 kHz, 2 channels, MPEG Audio (MP3)
Субтитры: отсутствуют

Подробные технические данные

GeneralComplete name : Don't give me presents that blow.aviFormat : AVIFormat/Info : Audio Video InterleaveFile size : 16.9 MiBDuration : 1mn 7sOverall bit rate : 2 097 KbpsWriting application : Lavf55.33.100
VideoID : 0Format : MPEG-4 VisualFormat profile : Advanced Simple@L4Format settings, BVOP : NoFormat settings, QPel : NoFormat settings, GMC : No warppointsFormat settings, Matrix : Default (H.263)Codec ID : XVIDCodec ID/Hint : XviDDuration : 1mn 7sBit rate : 1 926 KbpsWidth : 720 pixelsHeight : 400 pixelsDisplay aspect ratio : 16:9Frame rate : 25.000 fpsColor space : YUVChroma subsampling : 4:2:0Bit depth : 8 bitsScan type : ProgressiveCompression mode : LossyBits/(Pixel*Frame) : 0.267Stream size : 15.5 MiB (92%)Writing library : XviD 64
AudioID : 1Format : MPEG AudioFormat version : Version 1Format profile : Layer 3Mode : Joint stereoMode extension : MS StereoCodec ID : 55Codec ID/Hint : MP3Duration : 1mn 7sBit rate mode : ConstantBit rate : 160 KbpsChannel(s) : 2 channelsSampling rate : 48.0 KHzCompression mode : LossyStream size : 1.29 MiB (8%)Alignment : Aligned on interleavesInterleave, duration : 24 ms (0.60 video frame)Interleave, preload duration : 24 msWriting library : LAME3.99.5

Скриншоты

[Профиль] [ЛС]
Кто просматривает тему:

Показать сообщения:    

Текущее время: Сегодня 11:06

Часовой пояс: GMT



Вы не можете начинать темы
Вы не можете отвечать на сообщения
Вы не можете редактировать свои сообщения
Вы не можете удалять свои сообщения
Вы не можете голосовать в опросах
Вы не можете прикреплять файлы к сообщениям
Вы не можете скачивать файлы