Не говори ни слова / Don't Say a Word (2001) BDRip 720p от ivandubskoj | D, P, A

 
Автор Сообщение

Russian Mafia ®

Пол:

Стаж: 1 год 8 месяцев

Сообщений: 4257



Награды: 10 (Подробнее)

Mega Seeder 2 (Количество: 1) Mega Seeder 3 (Количество: 1) Top Releaser 3 (Количество: 1)
Торрент-статистика

Создавать темы 28-Мар-2016 13:05

[Цитировать]

Информация о фильме
Название: Не говори ни слова
Оригинальное название: Don't Say a Word
Год выхода: 2001
Жанр: Триллер, драма, криминал, детектив, экранизация
Режиссёр: Гэри Флидер
В ролях: Майкл Дуглас, Шон Бин, Бриттани Мёрфи, Скай МакКоул Бартусяк, Фамке Янссен, Гай Торри, Дженнифер Эспозито, Шоун Дойл, Виктор Арго, Конрад Гуд, Пол Шульц, Лэнс Реддик, Оливер Плэтт, Эйдан Дивайн, Алекс Кэмпбелл, Филип ДеУайлд, Сэм Монтесано, Арлин Дункан, Джуди Синклер, Ларри Блок, Дэвид Уоршофски, Даррен Фрост, Филип Уильямс, Луис Ванариа, Дэниэл Кэш, Люси Лорье, Изабелла Финк, Рэй Яничелли, Колм Мэгнер, Сайрус Фармер, Лорли Вильянуэва
О фильме:
"Вы хотите того же, что они?… Я никогда не скажу… никому из вас", — вот первые слова Элизабет, обращенные к знаменитому психиатру Натану Конраду. Элизабет, замкнутая в себе девушка, страдающая припадками немотивированной агрессии, причину которой никто до сих пор не смог объяснить и, тем более, устранить. В Натане просыпается профессиональный интерес и он принимается за лечение, но проходит совсем немного времени, и он узнает, что Элизабет и ее болезнь каким-то таинственным образом связаны с опасностью, грозящей ему и его семье. Дочь психиатра похищают самым бесцеремонным образом, а за ним и его женой устанавливают круглосуточное наблюдение. Чтобы спасти дочь, Натану необходимо расшифровать шестизначный код, спрятанный в затуманенном сознании его пациентки.

Выпущено: США, Австралия, Швецария, Канада, Epsilon Motion Pictures, Further Films, Kopelson Entertainment, New Regency Pictures, NPV Entertainment, Regency Enterprises, Village Roadshow Pictures
Продолжительность: 01:53:35
Перевод: Дублированный (Невафильм), профессиональный многоголосый (Карусель), профессиональный многоголосый, авторский одноголосый (А. Гаврилов), авторский одноголосый (Ю. Живов), авторский одноголосый (А. Дольский)
Оригинальная аудио-дорожка: Английская
Файл
Контейнер: MKV
Кодек: MPEG-4 AVC
Качество: BDRip (720p) [Исходник: Blu-ray Remux (1080p) от ivandubskoj]
Видео: MPEG-4 AVC, 1280x544 (2.35:1), 5552 Кбит/с, 23.976 кадр/с, 0.333 bit/pixel
Аудио #1: Русский, Dolby AC3, 48000 Гц, 640 Кбит/с, 6 каналов (5.1) - DUB [Невафильм]
Аудио #2: Русский, Dolby AC3, 48000 Гц, 640 Кбит/с, 6 каналов (5.1) - MVO [Карусель]
Аудио #3: Русский, Dolby AC3, 48000 Гц, 192 Кбит/с, 2 канала (Стерео) - MVO
Аудио #4: Русский, Dolby AC3, 48000 Гц, 640 Кбит/с, 6 каналов (5.1) - AVO [А. Гаврилов]
Аудио #5: Русский, Dolby AC3, 48000 Гц, 640 Кбит/с, 6 каналов (5.1) - AVO [Ю. Живов]
Аудио #6: Русский, Dolby AC3, 48000 Гц, 192 Кбит/с, 2 канала (Стерео) - AVO [А. Дольский]
Аудио #7: Английский, DTS, 48000 Гц, 1510 Кбит/с, 6 каналов (5.1) - Оригинал
Субтитры: Русские, украинские (полные), английские (полные, SDH) SRT
Навигация по главам: Есть (Сохранены оригинальные чаптеры, как на Blu-ray, с названием всех глав)

Знаете ли вы, что...

Фильм снят по мотивам романа Эндрю Клэвана «Не говори ни слова» (Don`t Say a Word, 1991).

x264 лог

x264 [info]: frame I:1476 Avg QP:12.71 size:129909
x264 [info]: frame P:37189 Avg QP:16.05 size: 45568
x264 [info]: frame B:124752 Avg QP:17.30 size: 22457
x264 [info]: consecutive B-frames: 3.0% 4.3% 9.3% 15.7% 17.5% 37.9% 6.8% 2.6% 2.8%

MediaInfo

General
Unique ID : 170569117006722779745443201548592172576 (0x80526AC0B6F9FFCEAB5AB8EB28A14E20)
Complete name : Don't.Say.a.Word.2001.BDRip.720p.mkv
Format : Matroska
Format version : Version 4 / Version 2
File size : 7.94 GiB
Duration : 1h 53mn
Overall bit rate : 10.0 Mbps
Movie name : Не говори ни слова / Don't Say a Word (2001) BDRip (720p) от ivandubskoj
Encoded date : UTC 2016-03-28 11:45:34
Writing application : mkvmerge v7.8.0 ('River Man') 64bit built on Mar 27 2015 16:31:37
Writing library : libebml v1.3.1 + libmatroska v1.4.2
Video
ID : 1
Format : AVC
Format/Info : Advanced Video Codec
Format profile : High@L4.1
Format settings, CABAC : Yes
Format settings, ReFrames : 9 frames
Codec ID : V_MPEG4/ISO/AVC
Duration : 1h 53mn
Bit rate : 5 552 Kbps
Width : 1 280 pixels
Height : 544 pixels
Display aspect ratio : 2.35:1
Frame rate mode : Constant
Frame rate : 23.976 fps
Color space : YUV
Chroma subsampling : 4:2:0
Bit depth : 8 bits
Scan type : Progressive
Bits/(Pixel*Frame) : 0.333
Stream size : 4.25 GiB (55%)
Title : Не говори ни слова / Don't Say a Word (2001)
Writing library : x264 core 146 r2538 121396c
Encoding settings : cabac=1 / ref=9 / deblock=1:-3:-3 / analyse=0x3:0x113 / me=umh / subme=11 / psy=1 / psy_rd=1.00:0.00 / mixed_ref=1 / me_range=32 / chroma_me=1 / trellis=2 / 8x8dct=1 / cqm=0 / deadzone=21,11 / fast_pskip=0 / chroma_qp_offset=-2 / threads=6 / lookahead_threads=1 / sliced_threads=0 / nr=0 / decimate=1 / interlaced=0 / bluray_compat=0 / constrained_intra=0 / bframes=8 / b_pyramid=2 / b_adapt=2 / b_bias=0 / direct=3 / weightb=1 / open_gop=0 / weightp=2 / keyint=240 / keyint_min=23 / scenecut=40 / intra_refresh=0 / rc_lookahead=60 / rc=2pass / mbtree=1 / bitrate=5552 / ratetol=1.0 / qcomp=0.60 / qpmin=0 / qpmax=69 / qpstep=4 / cplxblur=20.0 / qblur=0.5 / vbv_maxrate=50000 / vbv_bufsize=62500 / nal_hrd=none / filler=0 / ip_ratio=1.40 / aq=1:1.00
Language : English
Default : Yes
Forced : No
Audio #1
ID : 2
Format : AC-3
Format/Info : Audio Coding 3
Mode extension : CM (complete main)
Format settings, Endianness : Big
Codec ID : A_AC3
Duration : 1h 53mn
Bit rate mode : Constant
Bit rate : 640 Kbps
Channel(s) : 6 channels
Channel positions : Front: L C R, Side: L R, LFE
Sampling rate : 48.0 KHz
Bit depth : 16 bits
Compression mode : Lossy
Stream size : 520 MiB (6%)
Title : DUB [Невафильм]
Language : Russian
Default : Yes
Forced : No
Audio #2
ID : 3
Format : AC-3
Format/Info : Audio Coding 3
Mode extension : CM (complete main)
Format settings, Endianness : Big
Codec ID : A_AC3
Duration : 1h 53mn
Bit rate mode : Constant
Bit rate : 640 Kbps
Channel(s) : 6 channels
Channel positions : Front: L C R, Side: L R, LFE
Sampling rate : 48.0 KHz
Bit depth : 16 bits
Compression mode : Lossy
Stream size : 520 MiB (6%)
Title : MVO [Карусель]
Language : Russian
Default : No
Forced : No
Audio #3
ID : 4
Format : AC-3
Format/Info : Audio Coding 3
Mode extension : CM (complete main)
Format settings, Endianness : Big
Codec ID : A_AC3
Duration : 1h 53mn
Bit rate mode : Constant
Bit rate : 192 Kbps
Channel(s) : 2 channels
Channel positions : Front: L R
Sampling rate : 48.0 KHz
Bit depth : 16 bits
Compression mode : Lossy
Stream size : 156 MiB (2%)
Title : MVO
Language : Russian
Default : No
Forced : No
Audio #4
ID : 5
Format : AC-3
Format/Info : Audio Coding 3
Mode extension : CM (complete main)
Format settings, Endianness : Big
Codec ID : A_AC3
Duration : 1h 53mn
Bit rate mode : Constant
Bit rate : 640 Kbps
Channel(s) : 6 channels
Channel positions : Front: L C R, Side: L R, LFE
Sampling rate : 48.0 KHz
Bit depth : 16 bits
Compression mode : Lossy
Stream size : 520 MiB (6%)
Title : AVO [А. Гаврилов]
Language : Russian
Default : No
Forced : No
Audio #5
ID : 6
Format : AC-3
Format/Info : Audio Coding 3
Mode extension : CM (complete main)
Format settings, Endianness : Big
Codec ID : A_AC3
Duration : 1h 53mn
Bit rate mode : Constant
Bit rate : 640 Kbps
Channel(s) : 6 channels
Channel positions : Front: L C R, Side: L R, LFE
Sampling rate : 48.0 KHz
Bit depth : 16 bits
Compression mode : Lossy
Stream size : 520 MiB (6%)
Title : AVO [Ю. Живов]
Language : Russian
Default : No
Forced : No
Audio #6
ID : 7
Format : AC-3
Format/Info : Audio Coding 3
Mode extension : CM (complete main)
Format settings, Endianness : Big
Codec ID : A_AC3
Duration : 1h 53mn
Bit rate mode : Constant
Bit rate : 192 Kbps
Channel(s) : 2 channels
Channel positions : Front: L R
Sampling rate : 48.0 KHz
Bit depth : 16 bits
Compression mode : Lossy
Stream size : 156 MiB (2%)
Title : AVO [А. Дольский]
Language : Russian
Default : No
Forced : No
Audio #7
ID : 8
Format : DTS
Format/Info : Digital Theater Systems
Mode : 16
Format settings, Endianness : Big
Codec ID : A_DTS
Duration : 1h 53mn
Bit rate mode : Constant
Bit rate : 1 509 Kbps
Channel(s) : 6 channels
Channel positions : Front: L C R, Side: L R, LFE
Sampling rate : 48.0 KHz
Bit depth : 24 bits
Compression mode : Lossy
Stream size : 1.20 GiB (15%)
Title : Original
Language : English
Default : No
Forced : No
Text #1
ID : 9
Format : UTF-8
Codec ID : S_TEXT/UTF8
Codec ID/Info : UTF-8 Plain Text
Title : Full
Language : Russian
Default : No
Forced : No
Text #2
ID : 10
Format : UTF-8
Codec ID : S_TEXT/UTF8
Codec ID/Info : UTF-8 Plain Text
Title : Full
Language : Ukrainian
Default : No
Forced : No
Text #3
ID : 11
Format : UTF-8
Codec ID : S_TEXT/UTF8
Codec ID/Info : UTF-8 Plain Text
Title : Full
Language : English
Default : No
Forced : No
Text #4
ID : 12
Format : UTF-8
Codec ID : S_TEXT/UTF8
Codec ID/Info : UTF-8 Plain Text
Title : Full [SDH]
Language : English
Default : No
Forced : No
Menu
00:00:00.000 : en:The Robbery (Main Titles)
00:08:10.490 : en:The Psychiatrist
00:11:16.676 : en:Elisabeth
00:18:50.546 : en:Uninvited Guests
00:20:02.952 : en:The Conrads
00:23:31.702 : en:The Floater
00:26:54.780 : en:Where's Jessie?
00:29:50.664 : en:We Have Your Daughter
00:35:31.338 : en:By Two Hands
00:37:07.559 : en:Emergency
00:42:11.696 : en:No Percentage
00:44:05.643 : en:Counterfeit Schizophrenic
00:47:15.416 : en:A Talk With Elisabeth
00:53:40.217 : en:The Visitor
00:56:37.978 : en:The Croft Connection
00:59:07.502 : en:Go Back...
01:03:58.126 : en:Beneath the Surface
01:07:30.088 : en:Part of the Deal
01:10:24.387 : en:Daddy's Smart Little Girl
01:12:00.066 : en:Security Breach
01:18:19.778 : en:Aggie's Battle
01:19:18.921 : en:The Way It Happened
01:24:32.776 : en:New Rules
01:27:01.633 : en:To Hart Island
01:30:05.567 : en:Face-to-Face
01:34:03.388 : en:The Number
01:37:04.485 : en:Grave Error
01:39:14.365 : en:Cognitive Distortion
01:40:37.365 : en:A Father's Fight
01:43:49.765 : en:Conrad's Justice
01:47:04.960 : en:Going Home
01:49:33.984 : en:End Titles

Скриншоты



Автор рипа - ivandubskoj
[Профиль] [ЛС]
Кто просматривает тему:

Показать сообщения:    

Текущее время: Сегодня 02:32

Часовой пояс: GMT



Вы не можете начинать темы
Вы не можете отвечать на сообщения
Вы не можете редактировать свои сообщения
Вы не можете удалять свои сообщения
Вы не можете голосовать в опросах
Вы не можете прикреплять файлы к сообщениям
Вы не можете скачивать файлы