Не говори ни слова / Don't Say a Word (2001) BDRip 1080p от BT-Club

 
Автор Сообщение

Белочка ®

Пол:

Стаж: 5 лет 1 месяц

Сообщений: 2089



Награды: 1 (Подробнее)

Girls (Количество: 1)
Торрент-статистика

Создавать темы 12-Окт-2014 10:24

[Цитировать]

Год выпуска: 2001
Страна: США, Австралия, Швейцария, Канада
Жанр: Триллер
Продолжительность: 1:53:36
Перевод: Дублированный, авторский х2
Субтитры: Русские, английские
Режиссер: Гэри Фледер
В ролях: Майкл Дуглас, Бриттани Мерфи, Шон Бин, Дженнифер Эспозито, Фамке Янссен, Скай МакКоул Бартусяк, Гай Торри, Шон Дойл, Виктор Арго, Конрад Гуд и др.
Качество: BDRip 1080p
Формат: MKV
Видео: MPEG4-AVC, 1920x816, ~8000 kbps, 23.976 fps
Аудио:
Русский: DTS, 6 ch, 768 kbps, 48 kHz - Дублированный
Русский: DTS, 6 ch, 1510 kbps, 48 kHz - Гаврилов
Русский: DTS, 6 ch, 1510 kbps, 48 kHz - Живов
Английский: DTS, 6 ch, 1510 kbps, 48 kHz
Описание: «Вы хотите того же, что они?… Я никогда не скажу… никому из вас» — вот первые слова Элизабет, обращенные к знаменитому психиатру Натану Конраду. Элизабет, замкнутая в себе девушка, страдающая припадками немотивированной агрессии, причину которой никто до сих пор не смог объяснить и, тем более, устранить.
В Натане просыпается профессиональный интерес и он принимается за лечение, но проходит совсем немного времени, и он узнает, что Элизабет и ее болезнь каким-то таинственным образом связаны с опасностью, грозящей ему и его семье. Дочь психиатра похищают самым бесцеремонным образом, а за ним и его женой устанавливают круглосуточное наблюдение. Чтобы спасти дочь, Натану необходимо расшифровать шестизначный код, спрятанный в затуманенном сознании его пациентки.

Скриншоты к раздаче "Не говори ни слова / Don't Say a Word (2001) "




MI

Формат файла: .mkv (Matroska)
Размер файла: 10.57 GB
Длительность: 1h 53mn
Навигация по главам: Есть
Битрейт (все потоки): 13.3 Mbps
Файл создан: UTC 2014-09-10 02:33:54
Создан при помощи: mkvmerge v7.0.0 ('Where We Going') 32bit built on Jun 9 2014 15:08:34
Использовалась библиотека: libebml v1.3.0 + libmatroska v1.4.1
Обложка: Отсутствует
:
Название: Ne govori ni slova_1080p_BT-Club_polnik
:
Тип потока: Видео
Длительность: 01:53:35
Кодек: AVC
Кодек/описание: Advanced Video Codec
Кодек/профиль: High@L4.1
Кодек/ID: V_MPEG4/ISO/AVC
Кодек/CABAC: Yes
Кодек/ReFrames: 5 frames
Размеры изображения: 1920 x 816 (2.35:1)
Частота кадров: 23.976 fps
Частота кадров/тип: Constant
Размер потока: 6.15 GiB (58%)
Битрейт: 7 999 Kbps
Библиотека кодирования: x264 core 142 r2431 ac76440
Цветовое пространство: YUV
Тип развёртки: Progressive
Глубина: 8 bits
Настройки кодирования: cabac=1 / ref=5 / deblock=1:0:0 / analyse=0x3:0x133 / me=tesa / subme=11 / psy=1 / psy_rd=1.00:0.15 / mixed_ref=1 / me_range=24 / chroma_me=1 / trellis=2 / 8x8dct=1 / cqm=0 / deadzone=21,11 / fast_pskip=0 / chroma_qp_offset=-3 / threads=12 / lookahead_threads=1 / sliced_threads=0 / nr=100 / decimate=1 / interlaced=0 / bluray_compat=0 / constrained_intra=0 / bframes=5 / b_pyramid=2 / b_adapt=2 / b_bias=0 / direct=3 / weightb=1 / open_gop=0 / weightp=2 / keyint=230 / keyint_min=22 / scenecut=40 / intra_refresh=0 / rc_lookahead=60 / rc=2pass / mbtree=1 / bitrate=7999 / ratetol=1.0 / qcomp=0.60 / qpmin=0 / qpmax=69 / qpstep=4 / cplxblur=20.0 / qblur=0.5 / vbv_maxrate=62500 / vbv_bufsize=78125 / nal_hrd=none / filler=0 / ip_ratio=1.40 / aq=1:1.00
:
Тип потока: Звук #1
Язык: Russian
Название: Дублированный
Длительность: 01:53:35.883
Кодек: DTS
Кодек/описание: Digital Theater Systems
Кодек/ID: A_DTS
Частота дискретизации: 48.0 KHz
Каналов: 6 channels
Битрейт: 768 Kbps
Битрейт/тип: Constant
Размер потока: 624 MiB (6%)
Глубина: 24 bits
Метод сжатия: Lossy
:
Тип потока: Звук #2
Язык: Russian
Название: Гаврилов
Длительность: 01:53:35.883
Кодек: DTS
Кодек/описание: Digital Theater Systems
Кодек/ID: A_DTS
Частота дискретизации: 48.0 KHz
Каналов: 6 channels
Битрейт: 1 509 Kbps
Битрейт/тип: Constant
Размер потока: 1.20 GiB (11%)
Глубина: 24 bits
Метод сжатия: Lossy
:
Тип потока: Звук #3
Язык: Russian
Название: Живов
Длительность: 01:53:35.883
Кодек: DTS
Кодек/описание: Digital Theater Systems
Кодек/ID: A_DTS
Частота дискретизации: 48.0 KHz
Каналов: 6 channels
Битрейт: 1 509 Kbps
Битрейт/тип: Constant
Размер потока: 1.20 GiB (11%)
Глубина: 24 bits
Метод сжатия: Lossy
:
Тип потока: Звук #4
Язык: English
Название: Английский
Длительность: 01:53:35.883
Кодек: DTS
Кодек/описание: Digital Theater Systems
Кодек/ID: A_DTS
Частота дискретизации: 48.0 KHz
Каналов: 6 channels
Битрейт: 1 509 Kbps
Битрейт/тип: Constant
Размер потока: 1.20 GiB (11%)
Глубина: 24 bits
Метод сжатия: Lossy
:
Тип потока: Субтитры #1
Язык: Russian
Формат: PGS
Формат/подробно: The same subtitle format used on BDs/HD-DVDs
Название: Русские
:
Тип потока: Субтитры #2
Язык: English
Формат: PGS
Формат/подробно: The same subtitle format used on BDs/HD-DVDs
Название: Английские
:
Тип потока: Меню #1
[Профиль] [ЛС]
Кто просматривает тему:

Показать сообщения:    

Текущее время: Сегодня 06:05

Часовой пояс: GMT



Вы не можете начинать темы
Вы не можете отвечать на сообщения
Вы не можете редактировать свои сообщения
Вы не можете удалять свои сообщения
Вы не можете голосовать в опросах
Вы не можете прикреплять файлы к сообщениям
Вы не можете скачивать файлы