Не волнуйся, у меня всё нормально / Je vais bien, ne t\'en fais pas (Филипп Лиоре / Philippe Lioret) [2006, Франция, драма, BDRip] VO (profesor1975) + Sub Rus, Eng + Original Fre

 
Автор Сообщение

TorrentFilm ®

Пол:

Стаж: 2 года

Сообщений: 7741



Награды: Нет

Торрент-статистика

Создавать темы 26-Июн-2015 00:06

[Цитировать]

Не волнуйся, у меня всё нормально / Je vais bien, ne t'en fais pas
Страна: Франция
Жанр: драма
Год выпуска: 2006
Продолжительность: 01:36:10
Перевод: Одноголосый закадровый - profesor1975
Cубтитры: русские, английские
Оригинальная аудиодорожка: французский

Режиссер: Филипп Лиоре / Philippe Lioret
В ролях: Мелани Лоран, Кад Мерад, Изабель Рено, Жюльен Буасселье, Айса Майга, Симон Бурет, Христоф Россигнон, Эрик Эрсон-Макарель, Тьерри Лават, Эммануэль Курколь
Описание: Брат-близнец 19-летней Лили, в очередной раз поссорившись с отцом, хватает любимую гитару и исчезает в неизвестном направлении. Главная героиня тяжело переносит эту потерю, а между тем отношения в семье становятся все напряженней, в результате чего Лили сначала впадает в депрессию, а потом и объявляет голодовку. Очарование незамысловатому сюжету придают не только актеры, органичные и искренние в своих ролях, но и не передаваемое на словах ощущение комфорта, теплоты, возникающие при просмотре, хотя сценарий к этому располагать вроде бы не должен. За весь фильм мы ни разу не видим мифического брата, зато вдоволь можем понаблюдать за сестрой, надломленной и меланхоличной девушкой, в исполнении прекрасной Мелани Лоран, которая не только демонстрирует сильную и проникновенную игру, но и выступает в достаточно смелой и откровенной сцене. Оставаться в неведении, согласитесь, легче, чем жить, зная что-то, что разобьет сердце другому. Но Лили рьяно ищет правду, её можно понять, ведь рядом нет брата, отсутствие которого напоминает о себе какой-то особенной болью. Оставаться в неведении может и проще, но знать правду порой нужно. Просто чтобы суметь двигаться дальше.
Качество видео: BDRip
Формат видео: AVI
Видео: 720x304 (2.37:1), 24 fps, XviD build 73 ~1964 kbps avg, 0.37 bit/pixel
Аудио: 48 kHz, AC3 Dolby Digital, 2/0 (L,R) ch, ~192 kbps - одноголосый
Аудио: 48 kHz, AC3 Dolby Digital, 3/2 (L,C,R,l,r) + LFE ch, ~448 kbps - оригинал (отдельным файлом)

MediaInfo

Общее
Полное имя : H:\Je.vais.bien.ne.ten.fais.pas.2006.bdrip_[1.46]_[teko]\Je.vais.bien.ne.ten.fais.pas.2006.bdrip_[1.46].avi
Формат : AVI
Формат/Информация : Audio Video Interleave
Размер файла : 1,46 Гбайт
Продолжительность : 1 ч. 36 м.
Общий поток : 2166 Кбит/сек
Программа кодирования : VirtualDubMod 1.5.10.3 | www.virtualdub-fr.org || (build 2550/release)
Библиотека кодирования : VirtualDubMod build 2550/release
Видео
Идентификатор : 0
Формат : MPEG-4 Visual
Профиль формата : Advanced Simple@L5
Параметр BVOP формата : 1
Параметр QPel формата : Нет
Параметр GMC формата : Без точки перехода
Параметр матрицы формата : Выборочная
Идентификатор кодека : XVID
Идентификатор кодека/Подсказка : XviD
Продолжительность : 1 ч. 36 м.
Битрейт : 1965 Кбит/сек
Ширина : 720 пикселей
Высота : 304 пикселя
Соотношение сторон : 2,35:1
Частота кадров : 24,000 кадра/сек
Цветовое пространство : YUV
Субдискретизация насыщенности : 4:2:0
Битовая глубина : 8 бит
Тип развёртки : Прогрессивная
Метод сжатия : С потерями
Бит/(Пиксели*Кадры) : 0.374
Размер потока : 1,32 Гбайт (91%)
Библиотека кодирования : XviD 73
Аудио
Идентификатор : 1
Формат : AC-3
Формат/Информация : Audio Coding 3
Расширение режима : CM (complete main)
Параметр Endianness формата : Big
Идентификатор кодека : 2000
Продолжительность : 1 ч. 36 м.
Вид битрейта : Постоянный
Битрейт : 192 Кбит/сек
Каналы : 2 канала
Расположение каналов : Front: L R
Частота : 48,0 КГц
Битовая глубина : 16 бит
Метод сжатия : С потерями
Размер потока : 132 Мбайт (9%)
Выравнивание : Разделение по промежуткам
Продолжительность промежутка : 42 мс. (1,00 видеокадр)
Время предзагрузки промежутка : 500 мс.
Релиз группы:
--
[Профиль] [ЛС]

Создавать темы 06-Авг-2015 22:29 (спустя 1 месяц 10 дней)

Топик был перенесен из форума Фильмы до 2014 года в форум Фильмы до 2012 года
sergej644
 
Кто просматривает тему:

Показать сообщения:    

Текущее время: Сегодня 11:07

Часовой пояс: GMT



Вы не можете начинать темы
Вы не можете отвечать на сообщения
Вы не можете редактировать свои сообщения
Вы не можете удалять свои сообщения
Вы не можете голосовать в опросах
Вы не можете прикреплять файлы к сообщениям
Вы не можете скачивать файлы