Не волнуйся, у меня всё нормально / Je vais bien, ne t\'en fais pas / Don\'t Worry, I\'m Fine (Филипп Лиоре / Philippe Lioret) [2006, Франция, драма, BDRip-AVC] VO (profesor1975) + Sub Rus, Eng + Original Fre

 
Автор Сообщение

painkiller ®

Стаж: 2 года 3 месяца

Сообщений: 582



Награды: Нет

Торрент-статистика

Создавать темы 27-Авг-2014 15:39

[Цитировать]

Не волнуйся, у меня всё нормально / Je vais bien, ne t'en fais pas / Don't Worry, I'm Fine Страна: Франция
Студия: Nord-Ouest Productions, Canal+, Angoa-Agicoa, Studio Canal
Жанр: драма
Год выпуска: 2006
Продолжительность: 01:36:10
Перевод: Одноголосый закадровый [profesor1975]
Cубтитры: русские, английские
Оригинальная аудиодорожка: французский
Режиссер: Филипп Лиоре / Philippe Lioret
В ролях: Мелани Лоран, Кад Мерад, Изабель Рено, Жюльен Буасселье, Айса Майга, Симон Бурет, Христоф Россигнон, Эрик Эрсон-Макарель, Тьерри Лават, Эммануэль Курколь, Жан-Ив Готье, Натали Безансон, Тибо де Монталембер, Ален Коши, Шарлотта Кламенс, Стефани Пастеркамп, Ришар Моте, Николас Бридет, Бландин Пелиссье
Описание: 19-летная Лили возвращается домой после каникул и обнаруживает, что ее брат-близнец Лоик, сильно рассорившись с отцом, ушел из дома. Не получая новостей от брата, сестра отправляется на поиски, и результат превзойдет все ее ожидания…- -Качество видео: BDRip-AVC
Контейнер: MKV
Видео: MPEG-4 AVC Video, 1072x456 / 2,35:1 (16:9) / 3640 kbps / 24 fps / High@L4.1 / 2pass
Аудио 1: Russian: AC3, 2.0 ch, 224 kbps, 48 kHz DVDRip - 4ELLENGER[/url], дорожка синхронизирована с сохранением тона)
Аудио 2: French: AC3, 6 ch, 448 kbps, 48 kHz
Формат субтитров: softsub (SRT)
Главы:

х264 Log

x264 [info]: frame I:992 Avg QP:18.03 size: 78632
x264 [info]: frame P:24209 Avg QP:20.55 size: 34571
x264 [info]: frame B:113280 Avg QP:22.41 size: 15080
x264 [info]: consecutive B-frames: 1.2% 0.9% 2.8% 11.3% 13.0% 39.2% 9.9% 4.7% 5.3% 5.5% 3.2% 1.8% 1.3%

MediaInfo

Общее
Уникальный идентификатор : 254332246247020652387222084667962980496 (0xBF569BE0056604678DEA05A327AA7890)
Полное имя : M:\Не волнуйся, у меня всё нормально 2006.BDRip-AVC.ЛО.Fre.mkv
Формат : Matroska
Версия формата : Version 4 / Version 2
Размер файла : 2,90 Гбайт
Продолжительность : 1 ч. 36 м.
Общий поток : 4310 Кбит/сек
Название фильма : Je vais bien, ne t'en fais pas (2006)
Дата кодирования : UTC 2014-08-22 05:04:30
Программа кодирования : mkvmerge v6.9.1 ('Blue Panther') 32bit built on Apr 18 2014 18:15:44
Библиотека кодирования : libebml v1.3.0 + libmatroska v1.4.1
Видео
Идентификатор : 1
Формат : AVC
Формат/Информация : Advanced Video Codec
Профиль формата : High@L4.1
Параметр CABAC формата : Да
Параметр ReFrames формата : 12 кадров
Идентификатор кодека : V_MPEG4/ISO/AVC
Продолжительность : 1 ч. 36 м.
Битрейт : 3640 Кбит/сек
Ширина : 1072 пикселя
Высота : 456 пикселей
Соотношение сторон : 2,35:1
Режим частоты кадров : Постоянный
Частота кадров : 24,000 кадра/сек
Цветовое пространство : YUV
Субдискретизация насыщенности : 4:2:0
Битовая глубина : 8 бит
Тип развёртки : Прогрессивная
Бит/(Пиксели*Кадры) : 0.310
Размер потока : 2,39 Гбайт (82%)
Библиотека кодирования : x264 core 133 r2334 a3ac64b
Настройки программы : cabac=1 / ref=12 / deblock=1:-2:-2 / analyse=0x3:0x133 / me=umh / subme=9 / psy=1 / psy_rd=0.90:0.00 / mixed_ref=1 / me_range=32 / chroma_me=1 / trellis=2 / 8x8dct=1 / cqm=0 / deadzone=21,11 / fast_pskip=0 / chroma_qp_offset=-2 / threads=6 / lookahead_threads=1 / sliced_threads=0 / nr=0 / decimate=1 / interlaced=0 / bluray_compat=0 / constrained_intra=0 / bframes=12 / b_pyramid=2 / b_adapt=2 / b_bias=0 / direct=3 / weightb=1 / open_gop=0 / weightp=2 / keyint=240 / keyint_min=23 / scenecut=40 / intra_refresh=0 / rc_lookahead=60 / rc=2pass / mbtree=0 / bitrate=3640 / ratetol=1.0 / qcomp=0.60 / qpmin=0 / qpmax=56 / qpstep=4 / cplxblur=20.0 / qblur=0.5 / vbv_maxrate=50000 / vbv_bufsize=62500 / nal_hrd=none / ip_ratio=1.40 / pb_ratio=1.30 / aq=1:0.80
Язык : French
Default : Да
Forced : Нет
Аудио #1
Идентификатор : 2
Формат : AC-3
Формат/Информация : Audio Coding 3
Расширение режима : CM (complete main)
Параметр Endianness формата : Big
Идентификатор кодека : A_AC3
Продолжительность : 1 ч. 36 м.
Вид битрейта : Постоянный
Битрейт : 224 Кбит/сек
Каналы : 2 канала
Расположение каналов : Front: L R
Частота : 48,0 КГц
Битовая глубина : 16 бит
Метод сжатия : С потерями
Размер потока : 154 Мбайт (5%)
Заголовок : AC3 2.0ch 224kbps - Одноголосый (profesor1975)
Язык : Russian
Default : Да
Forced : Нет
Аудио #2
Идентификатор : 3
Формат : AC-3
Формат/Информация : Audio Coding 3
Расширение режима : CM (complete main)
Параметр Endianness формата : Big
Идентификатор кодека : A_AC3
Продолжительность : 1 ч. 36 м.
Вид битрейта : Постоянный
Битрейт : 448 Кбит/сек
Каналы : 6 каналов
Расположение каналов : Front: L C R, Side: L R, LFE
Частота : 48,0 КГц
Битовая глубина : 16 бит
Метод сжатия : С потерями
Размер потока : 308 Мбайт (10%)
Заголовок : AC3 6ch 448kbps (DTS MA 5.1/16/1501)
Язык : French
Default : Нет
Forced : Нет
Текст #1
Идентификатор : 4
Формат : UTF-8
Идентификатор кодека : S_TEXT/UTF8
Идентификатор кодека/Информация : UTF-8 Plain Text
Язык : Russian
Default : Нет
Forced : Нет
Текст #2
Идентификатор : 5
Формат : UTF-8
Идентификатор кодека : S_TEXT/UTF8
Идентификатор кодека/Информация : UTF-8 Plain Text
Язык : English
Default : Нет
Forced : Нет
Меню
00:00:00.000 : en:00:00:00.000
00:08:35.083 : en:00:08:35.083
00:14:52.125 : en:00:14:52.125
00:24:22.750 : en:00:24:22.750
00:31:53.750 : en:00:31:53.750
00:42:17.333 : en:00:42:17.333
00:49:47.167 : en:00:49:47.167
00:55:53.458 : en:00:55:53.458
01:03:35.792 : en:01:03:35.792
01:09:46.667 : en:01:09:46.667
01:16:31.625 : en:01:16:31.625
01:22:27.292 : en:01:22:27.292

-

Скриншот с названием фильма

[Профиль] [ЛС]

Создавать темы 06-Авг-2015 23:06 (спустя 11 месяцев 10 дней)

Топик был перенесен из форума Фильмы до 2014 года в форум Фильмы до 2012 года
sergej644
 
Кто просматривает тему:

Показать сообщения:    

Текущее время: Сегодня 02:16

Часовой пояс: GMT



Вы не можете начинать темы
Вы не можете отвечать на сообщения
Вы не можете редактировать свои сообщения
Вы не можете удалять свои сообщения
Вы не можете голосовать в опросах
Вы не можете прикреплять файлы к сообщениям
Вы не можете скачивать файлы