Не вижу зла: Болотные убийства / See no evil: The Moors murders (Кристофер Менол / Christopher Menaul) [2006, Великобритания, Криминальная драма, DVDRip] sub

 
Автор Сообщение

painkiller ®

Стаж: 2 года 3 месяца

Сообщений: 582



Награды: Нет

Торрент-статистика

Создавать темы 14-Авг-2014 13:01

[Цитировать]

Не вижу зла: Болотные убийства / See no evil: The Moors murders
Страна: Великобритания
Жанр: Криминальная драма
Год выпуска: 2006
Продолжительность: 02:17:19
Перевод: Субтитры Notabenoid
Cубтитры: русские
Оригинальная аудиодорожка: английский
Режиссер: Кристофер Менол / Christopher Menaul
В ролях: Джоанн Фроггатт, Максин Пик, Шон Харрис, Мэттью МакНалти, Джордж Костиган, Шарлотта Эммерсон, Джон Хеншоу, Джеймс Куинн, Стивен МакКенна, Стивен Хиллман
Описание: "Сюжет строится вокруг молодых родителей Дэвида и Морин Смит, у которых умерла шестимесячная дочь Анжела. Страдая, Морин Смит ищет поддержки у своей старшей сестры Майры, а Дэвид — у парня Майры, Иэна, не зная о их страшных преступлениях."
Сильная, наводящая на размышления драма, основанная на одном из самых шокирующих преступлений 20-го века в Британии . Это история детоубийц Иэна Брэйди и Майры Хиндли. Приговоренные за пытки и убийства пяти молодых людей к пожизненному заключению, Болотные убийцы остаются двумя самыми ненавистными людьми в Британии.
Фильм основан на двух годах интенсивных исследований и беседах с детективами и ключевыми свидетелями.
Сэмпл: http://multi-up.com/971380
Качество видео: DVDRip
Формат видео: MP4
Видео: MPEG-4, 720х406, 16:9, 25.000 fps, 1 625 Kbps
Аудио: AAC, 44.1 KHz, 128 Kbps, 2 channels
Формат субтитров: softsub (SSA/ASS)

MediaInfo

General
Complete name : H:\SeeNoEvil_3711529283_Title4.mp4
Format : MPEG-4
Format profile : Base Media
Codec ID : isom
File size : 800 MiB
Duration : 1h 8mn
Overall bit rate mode : Constant
Overall bit rate : 1 625 Kbps
Movie name : SeeNoEvil_3711529283_Title4
Writing application : Lavf54.46.100
Video
ID : 1
Format : MPEG-4 Visual
Format settings, BVOP : No
Format settings, QPel : No
Format settings, GMC : No warppoints
Format settings, Matrix : Default (H.263)
Codec ID : 20
Duration : 1h 8mn
Bit rate mode : Constant
Bit rate : 1 492 Kbps
Width : 720 pixels
Height : 406 pixels
Display aspect ratio : 16:9
Frame rate mode : Constant
Frame rate : 25.000 fps
Color space : YUV
Chroma subsampling : 4:2:0
Bit depth : 8 bits
Scan type : Progressive
Compression mode : Lossy
Bits/(Pixel*Frame) : 0.204
Stream size : 734 MiB (92%)
Writing library : Lavc54.79.100
Audio
ID : 2
Format : AAC
Format/Info : Advanced Audio Codec
Format profile : LC
Codec ID : 40
Duration : 1h 8mn
Bit rate mode : Constant
Bit rate : 128 Kbps
Channel(s) : 2 channels
Channel positions : Front: L R
Sampling rate : 44.1 KHz
Compression mode : Lossy
Stream size : 63.0 MiB (8%)

Скриншот c названием фильма

Скриншоты

Часть текста субтитров

20
00:02:25,767 --> 00:02:27,758
Прошу прощения, мистер Брэйди.
21
00:02:28,647 --> 00:02:30,239
Перепечатайте, пожалуйста.
22
00:02:31,167 --> 00:02:32,759
Конечно,
23
00:02:32,807 --> 00:02:34,399
мистер Брэйди.
24
00:02:38,807 --> 00:02:41,002
- Иэн.
- Морин.
25
00:02:41,047 --> 00:02:43,242
И где же отец?
26
00:02:43,287 --> 00:02:46,643
Полагаю, сидит в баре со своим стариком.
27
00:02:46,687 --> 00:02:50,646
Нет, Дэйв стал очень ответственным с момента её рождения. Ты не веришь в это?
28
00:02:50,687 --> 00:02:52,678
Ты права. Я не верю.
29
00:02:53,807 --> 00:02:55,798
Он сам не более чем ребенок.
30
00:02:55,847 --> 00:02:58,839
Нет, честно, он относится к отцовству совершенно серьезно.
31
00:02:58,887 --> 00:03:01,037
Я его как раз оставила замачивать пеленки.
32
00:03:01,087 --> 00:03:02,884
Хорошо.
33
00:03:05,767 --> 00:03:07,485
Слушай, эм...
34
00:03:07,527 --> 00:03:12,157
Мы с Иэном говорили как-то вечером,
о том, как ты впервые познакомила нас с Дэйвом.
35
00:03:13,167 --> 00:03:15,362
Надо бы его должным образом принять в семью
36
00:03:15,407 --> 00:03:19,958
То есть.. он и Иэн почти свояки и тем не менее...
37
00:03:20,007 --> 00:03:22,202
Они все еще едва ли знают друг друга.
38
00:03:23,207 --> 00:03:25,004
Да. Я бы удовольствием зашла к вам.
39
00:03:27,487 --> 00:03:30,479
Хорошо. Хорошо.
40
00:03:30,527 --> 00:03:33,041
Я не вижу смысла вот так вот запросто приходить в гости к Майре.
[Профиль] [ЛС]

Создавать темы 06-Авг-2015 23:14 (спустя 11 месяцев 23 дня)

Топик был перенесен из форума Фильмы до 2014 года в форум Фильмы до 2012 года
sergej644
 
Кто просматривает тему:

Показать сообщения:    

Текущее время: Сегодня 22:35

Часовой пояс: GMT



Вы не можете начинать темы
Вы не можете отвечать на сообщения
Вы не можете редактировать свои сообщения
Вы не можете удалять свои сообщения
Вы не можете голосовать в опросах
Вы не можете прикреплять файлы к сообщениям
Вы не можете скачивать файлы