Не брать живым / Green Zone (Пол Гринграсс / Paul Greengrass) [2010, США, Боевик, триллер, драма, военный, BDRip] Dub

 
Автор Сообщение

TorrentFilm ®

Пол:

Стаж: 1 год 11 месяцев

Сообщений: 7741



Награды: Нет

Торрент-статистика

Создавать темы 26-Окт-2015 00:11

[Цитировать]

Не брать живым / Green Zone
«Он больше не подчиняется приказам»
- Год выпуска: 2010
Выпущено: Франция, США, Испания, Великобритания / Universal Pictures
Жанр: боевик, триллер, драма, военный
Продолжительность: 01:54:46
Перевод: Профессиональный (полное дублирование) BD CEE |Лицензия|
Cубтитры: нет-Режиссер:
Пол Гринграсс / Paul Greengrass-В ролях:
Мэтт Дэймон (Miller), Джейсон Айзекс (Briggs), Грег Киннер (Clark Poundstone), Эми Райан (Lawrie Dayne), Брендан Глисон (Martin Brown), Никойе Бэнкс (Perry), Джерри Делла Салла (Wilkins), Шон Хьюз (Conway), Майкл О’Нил (Colonel Bethel), Энтони Короне (Colonel Lyons), Дрисс Рухе (Tahir al-Malik), Игал Наор (Al Rawi)-Описание:
В «Зелёной зоне» оккупированного Ирака — территории, находящейся под контролем армии Соединенных Штатов — агенты ЦРУ тщетно ищут следы оружия массового поражения. Необъективность расследования становится очевидной офицеру Рою Миллеру, попытавшемуся предать огласке полученные результаты. Но как далеко могут зайти генералы, решившие во что бы то ни стало навести порядок в нестабильном регионе?-Релиз групп | | IMDB | КиноПоиск | Сэмпл |-Качество: BDRip [BDRemux]
Формат: AVI
Видео: 720x304 (2.37:1), 23.976 fps, XviD build 67 ~1425 kbps avg, 0.27 bit/pixel
Аудио: 48 kHz, AC3 Dolby Digital, 3/2 (L,C,R,l,r) + LFE ch, ~384.00 kbps avg
-

Скриншоты

MediaInfo

General
Complete name                            : D:\Ne_brat`_zhivym_2010_BDRip_by_Dalemake.avi
Format                                   : AVI
Format/Info                              : Audio Video Interleave
File size                                : 1.46 GiB
Duration                                 : 1h 54mn
Overall bit rate                         : 1 819 Kbps
Writing application                      : VirtualDubMod 1.5.10.3 | www.virtualdub-fr.org || (build 2550/release)
Writing library                          : VirtualDubMod build 2550/release
Video
ID                                       : 0
Format                                   : MPEG-4 Visual
Format profile                           : Advanced Simple@L5
Format settings, BVOP                    : 1
Format settings, QPel                    : No
Format settings, GMC                     : No warppoints
Format settings, Matrix                  : Custom
Codec ID                                 : XVID
Codec ID/Hint                            : XviD
Duration                                 : 1h 54mn
Bit rate                                 : 1 426 Kbps
Width                                    : 720 pixels
Height                                   : 304 pixels
Display aspect ratio                     : 2.35:1
Frame rate                               : 23.976 fps
Color space                              : YUV
Chroma subsampling                       : 4:2:0
Bit depth                                : 8 bits
Scan type                                : Progressive
Compression mode                         : Lossy
Bits/(Pixel*Frame)                       : 0.272
Stream size                              : 1.14 GiB (78%)
Writing library                          : XviD 67
Audio
ID                                       : 1
Format                                   : AC-3
Format/Info                              : Audio Coding 3
Mode extension                           : CM (complete main)
Format settings, Endianness              : Big
Codec ID                                 : 2000
Duration                                 : 1h 54mn
Bit rate mode                            : Constant
Bit rate                                 : 384 Kbps
Channel(s)                               : 6 channels
Channel positions                        : Front: L C R, Side: L R, LFE
Sampling rate                            : 48.0 KHz
Bit depth                                : 16 bits
Compression mode                         : Lossy
Stream size                              : 315 MiB (21%)
Alignment                                : Split accross interleaves
Interleave, duration                     : 42 ms (1.00 video frame)
Interleave, preload duration             : 500 ms

Сравнение

http://torrentfilm.net/forum/viewtopic.php?t=3067136 - хардсаб, не стандартный размер, пережато fps
http://screenshotcomparison.com/comparison/147231
-
[Профиль] [ЛС]

Создавать темы 12-Июн-2016 07:53 (спустя 7 месяцев 17 дней)

Топик был перенесен из форума Фильмы 2011 года в форум Фильмы 2010 года
Russian Mafia
 
Кто просматривает тему:

Показать сообщения:    

Текущее время: Сегодня 20:01

Часовой пояс: GMT



Вы не можете начинать темы
Вы не можете отвечать на сообщения
Вы не можете редактировать свои сообщения
Вы не можете удалять свои сообщения
Вы не можете голосовать в опросах
Вы не можете прикреплять файлы к сообщениям
Вы не можете скачивать файлы