Не бойся, я с тобой! (Юлий Гусман) [1981, СССР, музыкальная комедия, HDTV 1080i]

 
Автор Сообщение

TorrentFilm ®

Пол:

Стаж: 2 года

Сообщений: 7741



Награды: Нет

Торрент-статистика

Создавать темы 27-Июл-2015 00:08

[Цитировать]

Не бойся, я с тобой!
Страна: СССР
Студия: Азербайджан фильм
Жанр: Музыкальная комедия
Год выпуска: 1981
Продолжительность: 02:25:44
Перевод: Не требуется
Cубтитры: нет
Оригинальная аудиодорожка: русский
Режиссёр: Юлий Гусман
В ролях: Лев Дуров, Сергей Юрский, Мухтарбек Кантемиров, Полад Бюль-Бюль Оглы, Гамида Омарова, Гасан Турабов, Мирза Бабаев, Александр Шаровский.
Описание: Циркач (Мухтарбек Кантемиров), скачущий на коне и стреляющий в надувные шарики в руках своего друга и напарника (Лев Дуров), получает письмо о том, что его бабушка тяжело больна. Несмотря на то, что его, возможно, ждет смерть из-за старой кровной мести, он собирается ехать. Дуров, волнуясь за товарища, отправляется вместе с ним. Приключения начинаются после того, как Дуров попросил одного из джигитов снять шапочку в местноми театре, где ставили "Лейла и Меджнун". Тот шапочку снять отказался, и Дуров ее снял собственноручно…
Чего только нет в этой действительно смешной и динамичной комедии — и похищение из-под венца, и погони, и перестрелки, и поединки в стиле восточных единоборств, и благородные рыцари, и подлые разбойники, и сокровища в пещерах, и побеги из тюрьмы.
Семпл: https://yadi.sk/d/qB6zb2qgi4T9F
Качество видео: HDTV 1080i
Формат видео: TS
Видео: H264; 1920x1080 (16:9); 25.000 fps; ~7 813 Kbps
Аудио: MPEG Audio Version 1 Layer 2, 48000Hz, 2 channels stereo 192 Кбит/сек

MediaInfo

General
ID : 1 (0x1)
Complete name : Q:\1__канал__HD\Не бойся, я с тобой.ts
Format : MPEG-TS
File size : 8.57 GiB
Duration : 2h 25mn
Overall bit rate mode : Variable
Overall bit rate : 8 423 Kbps
Video
ID : 2292 (0x8F4)
Menu ID : 1 (0x1)
Format : AVC
Format/Info : Advanced Video Codec
Format profile : High@L4.0
Format settings, CABAC : Yes
Format settings, ReFrames : 4 frames
Codec ID : 27
Duration : 2h 25mn
Bit rate : 7 813 Kbps
Width : 1 920 pixels
Height : 1 080 pixels
Display aspect ratio : 16:9
Frame rate : 25.000 fps
Color space : YUV
Chroma subsampling : 4:2:0
Bit depth : 8 bits
Scan type : MBAFF
Bits/(Pixel*Frame) : 0.151
Stream size : 7.95 GiB (93%)
Audio
ID : 2295 (0x8F7)
Menu ID : 1 (0x1)
Format : MPEG Audio
Format version : Version 1
Format profile : Layer 2
Codec ID : 3
Duration : 2h 25mn
Bit rate mode : Constant
Bit rate : 192 Kbps
Channel(s) : 2 channels
Sampling rate : 48.0 KHz
Compression mode : Lossy
Stream size : 200 MiB (2%)
Language : English

Скриншоты


[Профиль] [ЛС]
Кто просматривает тему:

Показать сообщения:    

Текущее время: Сегодня 06:01

Часовой пояс: GMT



Вы не можете начинать темы
Вы не можете отвечать на сообщения
Вы не можете редактировать свои сообщения
Вы не можете удалять свои сообщения
Вы не можете голосовать в опросах
Вы не можете прикреплять файлы к сообщениям
Вы не можете скачивать файлы