Не бойся темноты / Don't Be Afraid of the Dark (2010) BDRip 1080p

 
Автор Сообщение

BOSS ®

Пол:

Стаж: 3 года

Сообщений: 7569

Откуда: ODESSA



Награды: 22 (Подробнее)

Mega Releaser 2 (Количество: 1) Top Keeper 2 (Количество: 1) Mega Releaser 3 (Количество: 1)
Торрент-статистика

Создавать темы 27-Июл-2017 10:40

[Цитировать]

Информация о фильме
Название: Не бойся темноты
Оригинальное название: Don't Be Afraid of the Dark
Год выхода: 2010
Жанр: ужасы, фэнтези, триллер
Режиссер: Трой Никси
В ролях: Кэти Холмс, Гай Пирс, Бэйли Мэдисон, Джек Томпсон, Брюс Глисон, Эдвина Ричард, Гарри МакДональд, Кэролин Шекспир-Аллен, Джулия Блейк, Дэвид Точчи
О фильме: Салли Хёрст — одинокая замкнутая девочка, которая приезжает на Род Айленд, чтобы пожить со своим отцом и его девушкой в старинном особняке девятнадцатого века, который они реставрируют. Исследуя обветшавший дом, Салли находит потайной подвал, куда никто не заглядывал с момента загадочного исчезновения архитектора особняка, произошедшего больше века назад.
Сама того не желая, Салли выпускает на свободу древние порождения тьмы, которые собираются затащить ее в страшную бездну, скрывающуюся под полом старого дома. Теперь ей предстоит убедить Алекса и Ким, что это не плод ее фантазии — пока отталкивающие существа не поглотили их всех.

Выпущено: Miramax Films
Продолжительность: 01:39:03
Перевод: Дублированный
Файл
Кодек: x264
Качество: BDRip (источник: Blu-ray Disc)
Видео: 1920x1080 (16:9), 23.976 fps, 5424 kbps
Аудио #1: AC-3, 6 ch, 448 kbps (Rus)
Аудио #2: AC-3, 6 ch, 448 kbps (Eng)
Субтитры: Русские, Английские
Скачать: сэмпл
Скриншоты

MI

Общее
Уникальный идентификатор : 173074085633922152689080995008959460030 (0x8234DB3DD0CAE4B492D79B7486BFB2BE)
Полное имя : Don't.Be.Afraid.of.the.Dark.2010.BDRip.1080p.Rus.Eng.mkv
Формат : Matroska
Версия формата : Version 2
Размер файла : 4,37 Гбайт
Продолжительность : 1 ч. 39 м.
Общий поток : 6320 Кбит/сек
Название фильма : Не бойся темноты / Don't Be Afraid of the Dark (2010)
Дата кодирования : UTC 2012-02-02 14:58:24
Программа кодирования : mkvmerge v4.0.0 ('The Stars were mine') сборка от Jun 6 2010 16:18:42
Библиотека кодирования : libebml v1.0.0 + libmatroska v1.0.0
Видео
Идентификатор : 1
Формат : AVC
Формат/Информация : Advanced Video Codec
Профиль формата : High@L4.1
Параметр CABAC формата : Да
Параметр ReFrames формата : 4 кадра
Идентификатор кодека : V_MPEG4/ISO/AVC
Продолжительность : 1 ч. 39 м.
Битрейт : 5424 Кбит/сек
Ширина : 1920 пикселей
Высота : 1080 пикселей
Соотношение сторон : 16:9
Частота кадров : 23,976 кадра/сек
Цветовое пространство : YUV
Субдискретизация насыщенности : 4:2:0
Битовая глубина : 8 бит
Тип развёртки : Прогрессивная
Бит/(Пиксели*Кадры) : 0.109
Размер потока : 3,67 Гбайт (84%)
Заголовок : Release by AlexKa
Библиотека кодирования : x264 core 120 r2146 bcd41db
Настройки программы : cabac=1 / ref=4 / deblock=1:0:0 / analyse=0x3:0x133 / me=umh / subme=10 / psy=1 / psy_rd=1.00:0.10 / mixed_ref=1 / me_range=32 / chroma_me=1 / trellis=2 / 8x8dct=1 / cqm=0 / deadzone=21,11 / fast_pskip=0 / chroma_qp_offset=-3 / threads=12 / sliced_threads=0 / nr=0 / decimate=1 / interlaced=0 / bluray_compat=0 / constrained_intra=0 / bframes=5 / b_pyramid=2 / b_adapt=2 / b_bias=0 / direct=3 / weightb=1 / open_gop=0 / weightp=2 / keyint=240 / keyint_min=24 / scenecut=40 / intra_refresh=0 / rc_lookahead=60 / rc=2pass / mbtree=1 / bitrate=5424 / ratetol=1.0 / qcomp=0.60 / qpmin=0 / qpmax=69 / qpstep=4 / cplxblur=20.0 / qblur=0.5 / ip_ratio=1.40 / aq=1:1.00
Язык : English
Аудио #1
Идентификатор : 2
Формат : AC-3
Формат/Информация : Audio Coding 3
Расширение режима : CM (complete main)
Идентификатор кодека : A_AC3
Продолжительность : 1 ч. 39 м.
Вид битрейта : Постоянный
Битрейт : 448 Кбит/сек
Каналы : 6 каналов
Расположение каналов : Front: L C R, Side: L R, LFE
Частота : 48,0 КГц
Битовая глубина : 16 бит
Метод сжатия : С потерями
Размер потока : 317 Мбайт (7%)
Заголовок : Rus
Язык : Russian
Аудио #2
Идентификатор : 3
Формат : AC-3
Формат/Информация : Audio Coding 3
Расширение режима : CM (complete main)
Идентификатор кодека : A_AC3
Продолжительность : 1 ч. 39 м.
Вид битрейта : Постоянный
Битрейт : 448 Кбит/сек
Каналы : 6 каналов
Расположение каналов : Front: L C R, Side: L R, LFE
Частота : 48,0 КГц
Битовая глубина : 16 бит
Метод сжатия : С потерями
Размер потока : 317 Мбайт (7%)
Заголовок : Eng
Язык : English
Текст #1
Идентификатор : 4
Формат : UTF-8
Идентификатор кодека : S_TEXT/UTF8
Идентификатор кодека/Информация : UTF-8 Plain Text
Заголовок : Rus
Язык : Russian
Текст #2
Идентификатор : 5
Формат : UTF-8
Идентификатор кодека : S_TEXT/UTF8
Идентификатор кодека/Информация : UTF-8 Plain Text
Заголовок : Eng
Язык : English
Меню
00:00:00.000 : :Chapter 01
00:07:18.771 : :Chapter 02
00:11:13.881 : :Chapter 03
00:17:01.437 : :Chapter 04
00:22:26.678 : :Chapter 05
00:27:47.332 : :Chapter 06
00:33:21.874 : :Chapter 07
00:40:36.142 : :Chapter 08
00:46:28.952 : :Chapter 09
00:52:31.940 : :Chapter 10
00:59:11.422 : :Chapter 11
01:05:16.203 : :Chapter 12
01:11:22.820 : :Chapter 13
01:19:15.542 : :Chapter 14
01:26:40.612 : :Chapter 15
01:34:16.525 : :Chapter 16
01:39:01.852 : :Chapter 17
[Профиль] [ЛС]
Кто просматривает тему:

Показать сообщения:    

Текущее время: Сегодня 05:46

Часовой пояс: GMT



Вы не можете начинать темы
Вы не можете отвечать на сообщения
Вы не можете редактировать свои сообщения
Вы не можете удалять свои сообщения
Вы не можете голосовать в опросах
Вы не можете прикреплять файлы к сообщениям
Вы не можете скачивать файлы