Нечто / The Thing (2011) BDRip 1080p | US Transfer

 
Автор Сообщение

Russian Mafia ®

Пол:

Стаж: 1 год 8 месяцев

Сообщений: 4252



Награды: 10 (Подробнее)

Mega Seeder 1 (Количество: 1) Mega Seeder 4 (Количество: 1) Mega Seeder 5 (Количество: 1)
Торрент-статистика

Создавать темы 26-Авг-2015 07:27

[Цитировать]

Информация о фильме:
Название: Нечто
Оригинальное название: The Thing
Год выхода: 2011
Жанр: ужасы, фантастика, триллер, детектив
Режиссер: Маттис ван Хейниген мл.
В ролях: Мэри Элизабет Уинстэд, Джоэл Эдгертон, Ульрих Томсен, Эрик Кристиан Олсен, Адевале Акиннуойе-Агбадже, Пол Браунштейн, Тронд Эспен Сейм, Ким Баббс, Ёрген Лангхелле, Ян Гуннар Рёйсе
О фильме:
Научная экспедиция обнаруживает в Антарктике потерпевший крушение инопланетный космический корабль. Группа отчаянных учёных проникает в его недра и неожиданно для самих себя открывает ящик Пандоры. Среди непроходимых снегов и ледяных гор, выпущенное на свободу Нечто устраивает на исследовательской станции жуткую бойню.

Выпущено: США, Канада
Продолжительность: 01:43:00
Перевод: Дублированный + Оригинал
Файл
Кодек: x264
Качество: BDRip 1080p
Видео: 1920x800, 9506 Kbps, 23.976 fps
Аудио #1: AC-3, 6 ch, 640 kbps (Rus)
Аудио #2: AC-3, 6 ch, 640 kbps (Eng)
Субтитры: русские, английские

Скриншоты

MI

x264 [info]: frame I:1041 Avg QP:12.30 size:197756
x264 [info]: frame P:29926 Avg QP:14.78 size: 86501
x264 [info]: frame B:117224 Avg QP:16.94 size: 38802
Общее
Уникальный идентификатор : 173753974993990248144403325134781681808 (0x82B7CC5FFDFC4E7B8C96657E94E61090)
Полное имя : Нечто.2011.BDRip.1080p.Rus.Eng.mkv
Формат : Matroska
Версия формата : Version 2
Размер файла : 7,76 Гбайт
Продолжительность : 1 ч. 43 м.
Общий поток : 10,8 Мбит/сек
Название фильма : Нечто.2011
Дата кодирования : UTC 2014-11-07 14:51:26
Программа кодирования : mkvmerge v5.8.0 ('No Sleep / Pillow') built on Sep 2 2012 15:37:04
Библиотека кодирования : libebml v1.2.3 + libmatroska v1.3.0
Attachements : Cover.png
Видео
Идентификатор : 1
Формат : AVC
Формат/Информация : Advanced Video Codec
Профиль формата : High@L4.1
Параметр CABAC формата : Да
Параметр ReFrames формата : 5 кадров
Идентификатор кодека : V_MPEG4/ISO/AVC
Продолжительность : 1 ч. 43 м.
Битрейт : 9506 Кбит/сек
Ширина : 1920 пикселей
Высота : 800 пикселей
Соотношение сторон : 2,40:1
Режим частоты кадров : Постоянный
Частота кадров : 23,976 кадра/сек
Цветовое пространство : YUV
Субдискретизация насыщенности : 4:2:0
Битовая глубина : 8 бит
Тип развёртки : Прогрессивная
Бит/(Пиксели*Кадры) : 0.258
Размер потока : 6,69 Гбайт (86%)
Заголовок : Rip by Boriy
Библиотека кодирования : x264 core 142 r2479 dd79a61
Настройки программы : cabac=1 / ref=5 / deblock=1:-3:-3 / analyse=0x3:0x113 / me=umh / subme=11 / psy=1 / psy_rd=1.00:0.00 / mixed_ref=1 / me_range=32 / chroma_me=1 / trellis=2 / 8x8dct=1 / cqm=0 / deadzone=21,11 / fast_pskip=0 / chroma_qp_offset=-2 / threads=12 / lookahead_threads=2 / sliced_threads=0 / nr=0 / decimate=0 / interlaced=0 / bluray_compat=0 / constrained_intra=0 / bframes=7 / b_pyramid=2 / b_adapt=2 / b_bias=0 / direct=3 / weightb=1 / open_gop=0 / weightp=2 / keyint=240 / keyint_min=23 / scenecut=40 / intra_refresh=0 / rc=2pass / mbtree=0 / bitrate=9506 / ratetol=1.0 / qcomp=0.60 / qpmin=0 / qpmax=69 / qpstep=4 / cplxblur=20.0 / qblur=0.5 / ip_ratio=1.40 / pb_ratio=1.30 / aq=1:1.00
Язык : English
Default : Да
Forced : Нет
Аудио #1
Идентификатор : 2
Формат : AC-3
Формат/Информация : Audio Coding 3
Расширение режима : CM (complete main)
Параметр Endianness формата : Big
Идентификатор кодека : A_AC3
Продолжительность : 1 ч. 43 м.
Вид битрейта : Постоянный
Битрейт : 640 Кбит/сек
Каналы : 6 каналов
Расположение каналов : Front: L C R, Side: L R, LFE
Частота : 48,0 КГц
Битовая глубина : 16 бит
Метод сжатия : С потерями
Размер потока : 472 Мбайт (6%)
Заголовок : Дубляж
Язык : Russian
Default : Да
Forced : Нет
Аудио #2
Идентификатор : 3
Формат : AC-3
Формат/Информация : Audio Coding 3
Расширение режима : CM (complete main)
Параметр Endianness формата : Big
Идентификатор кодека : A_AC3
Продолжительность : 1 ч. 43 м.
Вид битрейта : Постоянный
Битрейт : 640 Кбит/сек
Каналы : 6 каналов
Расположение каналов : Front: L C R, Side: L R, LFE
Частота : 48,0 КГц
Битовая глубина : 16 бит
Метод сжатия : С потерями
Размер потока : 472 Мбайт (6%)
Заголовок : Оригинал
Язык : English
Default : Нет
Forced : Нет
Текст #1
Идентификатор : 4
Формат : UTF-8
Идентификатор кодека : S_TEXT/UTF8
Идентификатор кодека/Информация : UTF-8 Plain Text
Язык : Russian
Default : Нет
Forced : Нет
Текст #2
Идентификатор : 5
Формат : UTF-8
Идентификатор кодека : S_TEXT/UTF8
Идентификатор кодека/Информация : UTF-8 Plain Text
Язык : English
Default : Нет
Forced : Нет
Меню
00:00:00.000 : :Chapter 1
00:04:31.896 : :Chapter 2
00:10:51.901 : :Chapter 3
00:14:41.422 : :Chapter 4
00:17:05.774 : :Chapter 5
00:20:39.655 : :Chapter 6
00:25:09.549 : :Chapter 7
00:32:49.634 : :Chapter 8
00:38:06.117 : :Chapter 9
00:43:02.705 : :Chapter 10
00:51:15.739 : :Chapter 11
00:55:13.184 : :Chapter 12
01:00:04.350 : :Chapter 13
01:04:51.804 : :Chapter 14
01:09:58.235 : :Chapter 15
01:14:39.516 : :Chapter 16
01:20:58.520 : :Chapter 17
01:24:46.372 : :Chapter 18
01:30:30.675 : :Chapter 19
01:34:56.315 : :Chapter 20
[Профиль] [ЛС]
Показать сообщения:    

Текущее время: Сегодня 02:37

Часовой пояс: GMT



Вы не можете начинать темы
Вы не можете отвечать на сообщения
Вы не можете редактировать свои сообщения
Вы не можете удалять свои сообщения
Вы не можете голосовать в опросах
Вы не можете прикреплять файлы к сообщениям
Вы не можете скачивать файлы