Нечто / The Thing (1982) HDRip | Remastered | Collector's Edition | P

 
Автор Сообщение

Шкипер ®

Пол:

Стаж: 1 год 8 месяцев

Сообщений: 53



Награды: Нет

Торрент-статистика

Создавать темы 11-Окт-2016 19:32

[Цитировать]

Информация о фильме
Название: Нечто
Оригинальное название: The Thing
Год выхода: 1982
Жанр: Ужасы, фантастика, детектив
Режиссер: Джон Карпентер / John Carpenter
В ролях: Курт Рассел, Кит Дэвид, Уилфорд Бримли, Т.К. Картер, Дэвид Кленнон, Ричард А. Дайсарт, Чарльз Хэллахан, Питер Мэлоуни, Ричард Мейсер, Дональд Моффет, Джоэл Полис, Томас Дж. Уэйтс
О фильме: Команде ученых американской исследовательской базы в Антарктике предстоит столкнуться с необъяснимым, чудовищным кошмаром. Отрезанные от всего света полярники вступают в неравную схватку с инопланетной тварью, пробудившейся после тысячелетней спячки во льдах.

MPAA: R - Лицам до 17 лет обязательно присутствие взрослого
Страна: США
Студия: Universal Pictures, Turman-Foster Company
Продолжительность: 01:48:34
Перевод: Профессиональный (многоголосый, закадровый) - Киномания
Файл
Кодек: XviD
Качество: HDRip
Видео: 640x272 (2.35:1), 23.976 fps, XviD build 73 ~823 kbps avg, 0.20 bit/pixel
Звук: 48 kHz, MPEG Layer 3, 2 ch, ~128.00 kbps avg
Субтитры: Отсутствуют
Семпл

MI

General
Complete name : E:Изготовление рипаNetchto.HDRip.by shkiper.avi
Format : AVI
Format/Info : Audio Video Interleave
File size : 746 MiB
Duration : 1h 48mn
Overall bit rate : 961 Kbps
Writing application : VirtualDubMod 1.5.10.3 | www.virtualdub-fr.org || (build 2550/release)
Writing library : VirtualDubMod build 2550/release
Video
ID : 0
Format : MPEG-4 Visual
Format profile : Advanced Simple@L5
Format settings, BVOP : 1
Format settings, QPel : No
Format settings, GMC : No warppoints
Format settings, Matrix : Custom
Codec ID : XVID
Codec ID/Hint : XviD
Duration : 1h 48mn
Bit rate : 824 Kbps
Width : 640 pixels
Height : 272 pixels
Display aspect ratio : 2.35:1
Frame rate : 23.976 (23976/1000) fps
Color space : YUV
Chroma subsampling : 4:2:0
Bit depth : 8 bits
Scan type : Progressive
Compression mode : Lossy
Bits/(Pixel*Frame) : 0.197
Stream size : 640 MiB (86%)
Writing library : XviD 73
Audio
ID : 1
Format : MPEG Audio
Format version : Version 1
Format profile : Layer 3
Codec ID : 55
Codec ID/Hint : MP3
Duration : 1h 48mn
Bit rate mode : Constant
Bit rate : 128 Kbps
Channel(s) : 2 channels
Sampling rate : 48.0 KHz
Compression mode : Lossy
Stream size : 99.4 MiB (13%)
Alignment : Aligned on interleaves
Interleave, duration : 42 ms (1.00 video frame)
Interleave, preload duration : 504 ms
Writing library : LAME3.99r
Encoding settings : -m s -V 4 -q 2 -lowpass 17 -b 128

Скриншоты

Релиз от:
[Профиль] [ЛС]
Показать сообщения:    

Текущее время: Сегодня 20:43

Часовой пояс: GMT



Вы не можете начинать темы
Вы не можете отвечать на сообщения
Вы не можете редактировать свои сообщения
Вы не можете удалять свои сообщения
Вы не можете голосовать в опросах
Вы не можете прикреплять файлы к сообщениям
Вы не можете скачивать файлы